<?xml version="1.0" standalone="no"?>
<!DOCTYPE svg PUBLIC "-//W3C//DTD SVG 1.1//EN" "http://www.w3.org/Graphics/SVG/1.1/DTD/svg11.dtd" >
<svg xmlns="http://www.w3.org/2000/svg" xmlns:xlink="http://www.w3.org/1999/xlink" version="1.1">
<metadata>
Created by FontForge 20201107 at Wed Nov  5 22:49:29 2014
 By Jimmy Wärting
Copyright \(c\) 2009 by Jos Buivenga. All rights reserved.
</metadata>
<defs>
<font id="FertigoPro-Italic" horiz-adv-x="558" >
  <font-face 
    font-family="FertigoPro"
    font-weight="400"
    font-style="italic"
    font-stretch="normal"
    units-per-em="1000"
    panose-1="2 0 5 0 0 0 0 2 0 4"
    ascent="770"
    descent="-230"
    x-height="508"
    cap-height="710"
    bbox="-97 -234 1020 925"
    underline-thickness="50"
    underline-position="-100"
    stemh="47"
    stemv="107"
    unicode-range="U+0020-FB04"
  />
<missing-glyph horiz-adv-x="250" 
 />
    <glyph glyph-name="f_f" unicode="ff" horiz-adv-x="635" 
d="M271 -229l-3 9c53 39 91 119 110 191c9 37 17 81 22 133s8 94 9 126c1 31 1 70 1 116c0 63 -2 81 -15 93h-195c-1 -19 -1 -49 -2 -91c-1 -43 -2 -76 -3 -101s-4 -58 -7 -98c-4 -41 -9 -74 -15 -99c-12 -52 -36 -124 -68 -164s-81 -77 -144 -90l-3 9c53 36 91 114 110 183
c9 35 17 77 22 127s8 90 9 120s1 67 1 111c0 46 -3 74 -8 84s-23 19 -52 28l2 42c33 0 54 8 65 24c8 63 33 116 74 159s93 65 154 65c27 0 52 -6 77 -17s37 -29 37 -54s-21 -47 -37 -55l-13 -5h-5c-17 44 -53 72 -84 72c-33 0 -59 -19 -78 -56s-28 -82 -29 -133h157
c27 0 46 8 57 24c8 70 35 129 80 177s101 72 168 72c32 0 62 -6 91 -17s43 -29 43 -54s-21 -47 -37 -54l-13 -6h-5c-21 44 -65 72 -104 72s-69 -21 -91 -63c-23 -42 -34 -92 -35 -151h76c21 0 39 3 44 4l5 2c0 -61 -20 -75 -69 -75c-11 0 -43 2 -59 2c-1 -19 -1 -51 -2 -95
s-2 -79 -3 -104c-1 -26 -4 -60 -8 -101c-4 -42 -9 -76 -15 -102c-6 -27 -15 -56 -26 -89c-12 -33 -26 -59 -42 -80c-32 -40 -81 -78 -144 -91z" />
    <glyph glyph-name="fi" unicode="fi" horiz-adv-x="594" 
d="M-42 -229l-3 9c55 55 94 141 113 212c9 36 17 81 22 135c5 53 8 97 9 131s1 80 1 137c0 36 -8 48 -60 63l2 42c33 0 55 8 66 24c9 73 34 134 77 182s98 72 165 72c40 0 82 -5 119 -28c18 -11 27 -26 27 -43c0 -23 -21 -47 -40 -58l-13 -8h-5c-23 44 -72 78 -108 78
c-43 0 -75 -21 -96 -63c-22 -42 -33 -94 -34 -156h77c21 0 38 3 45 6l4 3c0 -56 -12 -77 -48 -77c-34 0 -61 0 -81 1c-1 -19 -1 -51 -2 -95s-2 -79 -3 -104c-1 -26 -4 -60 -7 -101c-4 -42 -9 -76 -15 -102c-6 -27 -15 -56 -26 -89c-12 -33 -26 -59 -42 -80
c-32 -40 -81 -78 -144 -91zM357 69c0 12 5 58 15 137s15 142 16 187c0 37 -5 77 -10 94l-3 13c22 7 41 10 57 10c40 0 63 -27 63 -74c0 -37 -6 -94 -18 -173c-13 -79 -19 -133 -19 -163c0 -29 10 -44 29 -44c29 0 63 31 79 58l11 19l7 -4c-1 -8 -2 -16 -17 -48
c-8 -16 -17 -30 -26 -42c-20 -25 -58 -49 -101 -49c-52 0 -83 27 -83 79z" />
    <glyph glyph-name="fl" unicode="fl" horiz-adv-x="589" 
d="M349 69c0 11 8 84 25 219c16 135 24 248 24 340c0 13 -1 33 -2 60c-21 17 -44 26 -67 26c-39 0 -69 -21 -91 -63c-23 -42 -34 -92 -35 -151h76c21 0 38 3 45 4l4 2c0 -61 -20 -75 -69 -75c-11 0 -43 2 -59 2c-1 -19 -1 -51 -2 -95s-2 -79 -3 -104c-1 -26 -4 -60 -8 -101
c-4 -42 -9 -76 -15 -102c-6 -27 -15 -56 -26 -89c-12 -33 -26 -59 -42 -80c-32 -40 -81 -78 -144 -91l-3 9c53 39 91 119 110 191c9 37 17 81 22 133s8 94 9 126c1 31 1 70 1 116s-3 74 -8 84s-23 19 -52 28l2 42c33 0 54 8 65 24c8 70 35 129 80 177s101 72 168 72
c40 0 76 -9 107 -26c35 -20 45 -49 45 -120c0 -47 -9 -143 -26 -288c-18 -145 -27 -224 -27 -239c0 -29 9 -44 26 -44c29 0 63 31 79 58l11 19l7 -4c-1 -8 -2 -16 -17 -48c-8 -16 -17 -30 -26 -42c-20 -25 -58 -49 -101 -49c-52 0 -83 27 -83 79z" />
    <glyph glyph-name="f_f_i" unicode="ffi" horiz-adv-x="911" 
d="M271 -229l-3 9c53 39 91 119 110 191c9 37 17 81 22 133s8 94 9 126c1 31 1 70 1 116c0 63 -2 81 -15 93h-195c-1 -19 -1 -49 -2 -91c-1 -43 -2 -76 -3 -101s-4 -58 -7 -98c-4 -41 -9 -74 -15 -99c-12 -52 -36 -124 -68 -164s-81 -77 -144 -90l-3 9c53 36 91 114 110 183
c9 35 17 77 22 127s8 90 9 120s1 67 1 111c0 46 -3 74 -8 84s-23 19 -52 28l2 42c33 0 54 8 65 24c8 63 33 116 74 159s93 65 154 65c27 0 52 -6 77 -17s37 -29 37 -54s-21 -47 -37 -55l-13 -5h-5c-17 44 -53 72 -84 72c-33 0 -59 -19 -78 -56s-28 -82 -29 -133h149
c33 0 54 8 65 24c8 70 35 129 80 177s101 72 168 72c32 0 62 -6 91 -17s43 -29 43 -54s-21 -47 -37 -54l-13 -6h-5c-21 44 -65 72 -104 72s-69 -21 -91 -63c-23 -42 -34 -92 -35 -151h76c21 0 39 3 44 4l5 2c0 -61 -20 -75 -69 -75c-11 0 -43 2 -59 2c-1 -19 -1 -51 -2 -95
s-2 -79 -3 -104c-1 -26 -4 -60 -8 -101c-4 -42 -9 -76 -15 -102c-6 -27 -15 -56 -26 -89c-12 -33 -26 -59 -42 -80c-32 -40 -81 -78 -144 -91zM674 69c0 12 5 58 15 137s15 142 16 187c0 37 -6 77 -10 94l-3 13c22 7 41 10 57 10c40 0 63 -27 63 -74c0 -37 -6 -94 -18 -173
c-13 -79 -19 -133 -19 -163c0 -29 10 -44 29 -44c29 0 63 31 78 58l12 19l7 -4c-1 -8 -2 -16 -17 -48c-8 -16 -17 -30 -26 -42c-20 -25 -58 -49 -101 -49c-52 0 -83 27 -83 79z" />
    <glyph glyph-name="f_f_l" unicode="ffl" horiz-adv-x="905" 
d="M-39 -204l-3 9c53 36 91 114 110 183c9 35 17 77 22 127s8 90 9 120s1 67 1 111c0 46 -3 74 -8 84s-23 19 -52 28l2 42c33 0 54 8 65 24c8 63 33 116 74 159s93 65 154 65c27 0 52 -6 77 -17s37 -29 37 -54s-21 -47 -37 -55l-13 -5h-5c-17 44 -53 72 -84 72
c-33 0 -59 -19 -78 -56s-28 -82 -29 -133h149c33 0 54 8 65 24c8 70 35 129 80 177s101 72 168 72c31 0 65 -7 101 -22c45 -17 56 -47 56 -124c0 -47 -9 -143 -26 -288c-18 -145 -27 -224 -27 -239c0 -29 9 -44 26 -44c29 0 63 31 79 58l11 19l7 -4c-1 -8 -2 -16 -17 -48
c-8 -16 -17 -30 -26 -42c-20 -25 -58 -49 -101 -49c-52 0 -83 27 -83 79c0 11 8 84 25 219c16 135 24 248 24 340c0 25 0 43 -1 55c-23 21 -47 31 -73 31c-39 0 -69 -21 -91 -63c-23 -42 -34 -92 -35 -151h76c21 0 39 3 44 4l5 2c0 -61 -20 -75 -69 -75c-11 0 -43 2 -59 2
c-1 -19 -1 -51 -2 -95s-2 -79 -3 -104c-1 -26 -4 -60 -8 -101c-4 -42 -9 -76 -15 -102c-6 -27 -15 -56 -26 -89c-12 -33 -26 -59 -42 -80c-32 -40 -81 -78 -144 -91l-3 9c53 39 91 119 110 191c9 37 17 81 22 133s8 94 9 126c1 31 1 70 1 116c0 63 -2 81 -15 93h-195
c-1 -19 -1 -49 -2 -91c-1 -43 -2 -76 -3 -101s-4 -58 -7 -98c-4 -41 -9 -74 -15 -99c-12 -52 -36 -124 -68 -164s-81 -77 -144 -90z" />
    <glyph glyph-name="f_j" unicode="fj" horiz-adv-x="563" 
d="M250 -210l-2 8c64 40 82 83 95 156c7 41 17 107 29 200c13 97 19 174 19 231c0 44 -6 87 -10 103l-3 12c21 7 41 10 59 10c41 0 61 -21 61 -96c0 -41 -6 -111 -17 -210c-12 -99 -23 -171 -33 -218c-29 -137 -93 -196 -198 -196zM-40 -229l-3 9c53 39 91 119 110 191
c9 37 17 81 22 133s8 94 9 126c1 31 1 70 1 116s-3 74 -8 84s-23 19 -52 28l2 42c33 0 54 8 65 24c8 70 35 129 80 177s101 72 168 72c32 0 62 -6 91 -17s43 -29 43 -54s-21 -47 -38 -54l-12 -6h-5c-21 44 -65 72 -104 72s-69 -21 -91 -63c-23 -42 -34 -92 -35 -151h76
c21 0 38 3 45 4l4 2c0 -61 -20 -75 -69 -75c-11 0 -43 2 -59 2c-1 -19 -1 -51 -2 -95s-2 -79 -3 -104c-1 -26 -4 -60 -8 -101c-4 -42 -9 -76 -15 -102c-6 -27 -15 -56 -26 -89c-12 -33 -26 -59 -42 -80c-32 -40 -81 -78 -144 -91z" />
    <glyph glyph-name=".notdef" horiz-adv-x="250" 
 />
    <glyph glyph-name="null" horiz-adv-x="0" 
 />
    <glyph glyph-name="nonmarkingreturn" horiz-adv-x="333" 
 />
    <glyph glyph-name="space" unicode=" " horiz-adv-x="243" 
 />
    <glyph glyph-name="exclam" unicode="!" horiz-adv-x="276" 
d="M136 177c-28 0 -38 16 -38 61c0 17 3 60 10 131c6 71 9 126 9 166c0 45 -3 87 -9 126c-6 38 -14 63 -23 76v5c23 6 43 9 61 9c62 0 93 -28 93 -84c0 -24 -14 -89 -42 -194s-42 -180 -42 -225c0 -34 4 -56 12 -67c-15 -3 -25 -4 -31 -4zM84 7c-23 23 -23 59 0 82
s59 23 82 0s23 -59 0 -82s-59 -23 -82 0z" />
    <glyph glyph-name="quotedbl" unicode="&#x22;" horiz-adv-x="342" 
d="M274 526c-33 0 -43 6 -43 27c0 14 2 40 7 79c4 38 6 71 6 98c0 13 0 24 -1 31c8 3 22 4 43 4c32 0 39 -5 39 -24c0 -18 -2 -48 -7 -89s-7 -74 -7 -99c0 -4 1 -18 1 -23c-11 -3 -23 -4 -38 -4zM115 526c-33 0 -43 6 -43 27c0 14 2 40 7 79c4 38 6 71 6 98c0 13 0 24 -1 31
c8 3 22 4 43 4c32 0 39 -5 39 -24c0 -18 -2 -48 -7 -89s-7 -74 -7 -99c0 -4 1 -18 1 -23c-11 -3 -23 -4 -38 -4z" />
    <glyph glyph-name="numbersign" unicode="#" horiz-adv-x="640" 
d="M133 16c0 8 7 41 16 85c5 21 8 38 10 50l4 24h-31c-59 0 -95 -1 -108 -3c-1 5 -1 10 -1 16c0 45 7 53 35 53c20 0 89 -3 110 -3h6l25 145h-28c-59 0 -95 -1 -108 -3c-1 7 -1 14 -1 23c0 39 9 46 36 46c20 0 90 -3 112 -3l8 43c11 66 18 104 19 115c3 1 8 1 13 1
c29 0 44 -8 44 -25c0 -8 -6 -40 -14 -84c-5 -22 -8 -39 -10 -50h145l8 43c10 58 16 96 18 115c3 1 8 1 13 1c30 0 45 -8 45 -24c1 -5 -19 -97 -25 -135h36c59 0 95 1 108 3v-14c0 -47 -7 -55 -35 -55c-20 0 -89 3 -111 3h-9l-26 -145h33c59 0 95 1 108 3c1 -5 2 -10 2 -17
c0 -44 -9 -52 -36 -52c-20 0 -89 3 -111 3h-7l-12 -66c-11 -60 -16 -99 -17 -116h-9c-33 0 -50 8 -50 23c0 8 7 41 16 85c5 21 8 38 10 50l4 24h-146l-12 -66c-11 -60 -16 -99 -17 -116h-9c-39 0 -51 7 -51 23zM259 383l-26 -145h146l25 145h-145z" />
    <glyph glyph-name="dollar" unicode="$" horiz-adv-x="476" 
d="M39 39c-25 24 -30 49 14 102h8c1 -2 15 -31 50 -59c20 -17 55 -34 91 -38l15 214c-21 11 -36 20 -44 25c-9 5 -21 13 -38 26c-17 12 -30 23 -37 34c-16 20 -32 56 -32 93c0 48 17 87 52 118c35 30 76 48 123 54c3 39 5 68 5 89c0 5 -1 17 -1 20c11 2 22 3 31 3
c14 0 21 -6 21 -18c0 -5 -3 -36 -8 -93c37 -2 72 -9 105 -22c32 -13 48 -32 48 -56c0 -21 -15 -43 -45 -67h-8s-36 75 -103 92l-15 -208c43 -23 46 -23 83 -49c17 -12 29 -23 37 -34c15 -21 31 -57 31 -96c0 -51 -17 -92 -52 -124s-77 -51 -124 -58c-2 -27 -3 -50 -3 -70
c0 -13 0 -21 1 -26c-11 -2 -22 -3 -31 -3c-14 0 -21 6 -21 18c0 1 4 56 6 80c-47 4 -123 18 -159 53zM263 230l-12 -183c48 12 73 47 73 90c0 34 -20 65 -61 93zM225 375l13 181c-41 -9 -73 -47 -73 -91c0 -35 20 -65 60 -90z" />
    <glyph glyph-name="percent" unicode="%" horiz-adv-x="717" 
d="M378 130c0 41 15 78 46 110c30 31 64 47 101 47c39 0 71 -14 98 -41s40 -61 40 -102s-15 -77 -46 -109s-66 -48 -103 -48c-38 0 -70 14 -96 41c-27 27 -40 61 -40 102zM436 133c0 -47 33 -94 77 -94c27 0 49 11 66 34s26 47 26 73c0 48 -38 86 -79 86
c-47 0 -90 -46 -90 -99zM151 89c0 12 16 36 49 80c16 21 27 36 32 43l234 343c35 51 56 83 63 98c7 -1 17 -7 29 -19c11 -12 17 -20 17 -25c0 -16 -19 -42 -49 -80c-15 -19 -26 -33 -32 -42l-232 -342c-35 -51 -56 -83 -63 -98c-32 15 -48 29 -48 42zM195 400
c-38 0 -70 14 -96 41c-27 27 -40 61 -40 102s15 78 46 110c30 31 64 47 101 47c39 0 71 -14 98 -41s40 -61 40 -102s-15 -77 -46 -109s-66 -48 -103 -48zM194 452c27 0 49 11 66 34s26 47 26 73c0 48 -38 86 -79 86c-47 0 -90 -46 -90 -99c0 -47 33 -94 77 -94z" />
    <glyph glyph-name="ampersand" unicode="&#x26;" horiz-adv-x="743" 
d="M55 131c0 60 42 117 127 171l5 -7c-25 -37 -38 -75 -38 -113c0 -77 43 -137 140 -137c42 0 85 11 130 32c-73 57 -137 130 -192 219c-56 89 -84 166 -84 232c0 56 21 101 62 136c41 34 90 51 147 51c101 0 162 -66 162 -147c0 -104 -110 -158 -155 -171l-18 -5l-5 6
c1 0 27 18 53 56c14 23 27 61 27 101c0 71 -36 112 -84 112c-53 0 -88 -55 -88 -116c0 -57 27 -127 82 -208c54 -82 116 -150 185 -205c65 59 98 119 98 181c0 38 -13 57 -39 57c-16 0 -32 -10 -40 -18l-5 -5l-7 5c0 1 15 74 90 74c51 0 80 -33 80 -81
c0 -33 -13 -72 -38 -116c-26 -45 -60 -86 -102 -124c49 -32 92 -48 128 -48c19 0 32 4 41 11l7 -5c-23 -56 -54 -78 -102 -78c-49 0 -102 18 -160 55c-67 -41 -135 -61 -203 -61c-58 0 -106 14 -145 42c-39 27 -59 62 -59 104z" />
    <glyph glyph-name="quotesingle" unicode="'" horiz-adv-x="183" 
d="M115 526c-33 0 -43 6 -43 27c0 14 2 40 7 79c4 38 6 71 6 98c0 13 0 24 -1 31c8 3 22 4 43 4c32 0 39 -5 39 -24c0 -18 -2 -48 -7 -89s-7 -74 -7 -99c0 -4 1 -18 1 -23c-11 -3 -23 -4 -38 -4z" />
    <glyph glyph-name="parenleft" unicode="(" horiz-adv-x="294" 
d="M41 208c0 91 16 189 52 293c35 103 104 189 195 214l1 -4c-35 -31 -71 -93 -109 -185c-38 -93 -57 -199 -57 -318c0 -95 12 -182 37 -261s48 -129 71 -150l-4 -4c-52 7 -96 50 -132 129c-36 80 -54 175 -54 286z" />
    <glyph glyph-name="parenright" unicode=")" horiz-adv-x="289" 
d="M-12 -207l-2 4c33 29 71 96 112 200c41 105 62 217 62 337c0 90 -12 169 -35 238c-24 69 -48 115 -71 139l3 4c55 -11 99 -51 134 -122c34 -71 51 -158 51 -260c0 -81 -12 -163 -35 -245c-24 -83 -56 -152 -96 -208c-40 -55 -81 -84 -123 -87z" />
    <glyph glyph-name="asterisk" unicode="*" horiz-adv-x="552" 
d="M298 547l-5 2c-11 72 -42 138 -73 173c17 27 43 40 79 40c24 -29 36 -65 36 -107c0 -45 -12 -81 -37 -108zM287 258c-24 28 -36 64 -36 107c0 45 12 81 37 108l5 -2c11 -72 42 -138 73 -173c-17 -27 -43 -40 -79 -40zM73 553c-7 11 -10 24 -10 38c0 17 5 34 15 50
c8 1 16 2 24 2c33 0 66 -10 98 -31c31 -21 52 -48 63 -79l-4 -4c-47 19 -94 28 -142 28c-13 0 -28 -1 -44 -4zM323 487l4 3c45 -18 92 -27 141 -27c19 0 34 1 45 4c7 -13 10 -26 10 -38c0 -15 -5 -32 -15 -50c-8 -1 -16 -2 -24 -2c-34 0 -67 11 -98 32c-32 21 -53 47 -63 78
zM146 341c-31 0 -56 16 -74 48c11 30 32 56 63 77s64 32 97 32c11 0 20 -1 26 -2l2 -6c-57 -44 -99 -105 -114 -149zM328 524l-1 5c57 45 98 106 113 150c31 0 56 -16 74 -48c-11 -30 -32 -56 -63 -77c-31 -22 -64 -33 -97 -33c-9 0 -18 1 -26 3z" />
    <glyph glyph-name="plus" unicode="+" horiz-adv-x="468" 
d="M193 140c3 37 4 77 5 121h-26c-59 0 -97 -1 -116 -4c-2 11 -3 22 -3 34c0 29 8 43 23 43c37 -3 78 -5 122 -5v33c0 54 -2 90 -5 109c13 3 28 4 45 4c21 0 32 -5 32 -14c-2 -41 -3 -85 -4 -132h32c54 0 90 2 109 5c3 -13 4 -28 4 -45c0 -21 -5 -32 -14 -32
c-40 2 -84 3 -131 4v-25c0 -59 1 -97 4 -116c-11 -2 -22 -3 -34 -3c-29 0 -43 8 -43 23z" />
    <glyph glyph-name="comma" unicode="," horiz-adv-x="232" 
d="M30 61c0 36 27 64 63 64c43 0 68 -40 68 -96c0 -38 -10 -72 -31 -103c-21 -30 -50 -45 -88 -45c-32 0 -59 14 -67 26l-6 9l7 6c11 -8 23 -12 37 -12c32 0 62 31 62 64c0 13 -7 26 -22 40s-23 30 -23 47z" />
    <glyph glyph-name="hyphen" unicode="-" horiz-adv-x="492" 
d="M76 242c-2 11 -3 22 -3 34c0 29 7 43 22 43c40 -3 82 -5 127 -5c107 0 169 2 187 5c3 -13 4 -28 4 -45c0 -21 -5 -32 -15 -32c-1 0 -69 4 -125 4c-111 0 -176 -1 -197 -4z" />
    <glyph glyph-name="period" unicode="." horiz-adv-x="233" 
d="M29 57c0 37 31 68 67 68c37 0 68 -31 68 -68c0 -36 -31 -67 -68 -67c-36 0 -67 31 -67 67z" />
    <glyph glyph-name="slash" unicode="/" horiz-adv-x="272" 
d="M100 -53c-11 -49 -17 -87 -20 -115c-46 0 -69 10 -69 30c0 5 12 59 35 164c23 104 48 220 77 348c29 127 45 200 49 217c10 49 16 85 17 109c13 0 27 -1 43 -4c18 -3 27 -10 27 -19c0 -3 -12 -57 -35 -163s-48 -221 -75 -344s-44 -198 -49 -223z" />
    <glyph glyph-name="zero" unicode="0" horiz-adv-x="566" 
d="M60 253c0 105 22 190 65 257s101 100 174 100c132 0 205 -101 205 -261c0 -107 -21 -195 -64 -262c-43 -68 -101 -102 -174 -102c-133 0 -206 103 -206 268zM269 64c41 0 75 25 103 74c27 49 41 112 41 188c0 121 -40 205 -119 205c-40 0 -74 -25 -101 -74
s-41 -111 -41 -186c0 -124 40 -207 117 -207z" />
    <glyph glyph-name="one" unicode="1" horiz-adv-x="415" 
d="M21 -5c-1 4 -1 9 -1 14c0 19 7 30 21 33c49 7 80 13 91 20c5 14 12 80 22 197c9 117 14 192 14 225c0 40 -19 63 -57 68l-16 2c-24 0 -32 4 -32 18c0 11 2 23 5 28l2 5c35 -3 68 -5 99 -5c34 0 72 1 114 3c41 1 71 2 88 2c13 0 19 -10 19 -31v-14l-24 -2
c-38 -3 -63 -10 -74 -20c-12 -11 -19 -36 -22 -75l-21 -295c-3 -35 -4 -63 -4 -84l1 -20c14 -9 47 -16 98 -22c8 -1 12 -7 12 -18l-2 -29c-17 3 -51 5 -104 5h-117c-33 0 -70 -2 -112 -5z" />
    <glyph glyph-name="two" unicode="2" horiz-adv-x="499" 
d="M7 -4l-4 3c4 19 10 35 18 49c21 36 77 86 126 130c25 21 49 45 73 70c48 50 81 112 81 175c0 65 -31 111 -100 111c-59 0 -100 -28 -121 -85l-8 3c5 103 78 158 171 158c55 0 99 -17 130 -52s46 -76 46 -123c7 -100 -97 -203 -175 -261c-25 -20 -54 -40 -85 -61
c-32 -21 -52 -35 -59 -41l3 -3c22 4 69 8 142 13c72 5 118 7 139 7c57 0 85 -31 85 -92l-7 -4c-9 5 -49 7 -118 7h-191c-63 0 -112 -1 -146 -4z" />
    <glyph glyph-name="three" unicode="3" horiz-adv-x="467" 
d="M12 3l2 24l7 2c15 -56 64 -83 119 -83c89 0 143 73 143 166c1 134 -126 144 -141 148c-11 3 -17 6 -17 11l9 28l55 9c25 4 47 20 66 48s28 56 28 85c0 51 -33 93 -97 93c-53 0 -100 -36 -127 -85l-7 5c3 45 21 83 56 112c34 29 74 44 121 44c51 0 91 -16 122 -47
s46 -69 46 -113c0 -75 -49 -136 -125 -156l1 -5c80 -27 126 -102 126 -187c0 -56 -23 -107 -68 -153s-101 -69 -168 -69c-41 0 -77 11 -106 32c-30 22 -45 52 -45 91z" />
    <glyph glyph-name="four" unicode="4" horiz-adv-x="523" 
d="M97 222l2 -4c27 3 64 5 110 5c29 0 51 0 66 -1c1 18 3 48 6 89s5 79 7 112s3 61 4 84h-5zM212 144h-165c-21 0 -38 15 -43 26l-4 9l280 417c24 6 41 9 51 9c41 0 69 -22 69 -57c0 -19 -8 -129 -24 -328c48 0 85 5 96 10l8 3v-13c0 -68 -21 -82 -74 -82c-7 0 -27 1 -35 1
c-1 -21 -3 -50 -5 -89s-4 -67 -5 -85c-4 -51 -21 -68 -56 -68c-4 0 -26 3 -66 10c9 13 20 92 31 236c-11 0 -42 1 -58 1z" />
    <glyph glyph-name="five" unicode="5" horiz-adv-x="473" 
d="M13 17l7 4c23 -51 73 -73 125 -73c47 0 86 20 117 60c31 39 46 85 46 138c0 45 -13 84 -39 117c-27 33 -64 49 -111 49c-29 0 -61 -5 -96 -16l-4 4l42 300h195c61 0 104 6 129 19l7 -4c-4 -23 -8 -35 -24 -61c-17 -26 -52 -42 -103 -42c-27 0 -59 2 -95 5s-55 7 -56 10
l-20 -170c22 6 47 9 75 9c89 0 212 -51 212 -211c0 -73 -25 -137 -74 -193c-50 -55 -110 -82 -179 -82c-85 0 -153 48 -154 137z" />
    <glyph glyph-name="six" unicode="6" horiz-adv-x="541" 
d="M433 63c-41 -52 -96 -78 -165 -78s-122 28 -157 83c-36 55 -54 123 -54 205c0 99 27 204 76 292c48 88 131 150 228 150c85 0 135 -49 131 -129l-8 -3s-20 71 -99 71c-43 0 -81 -20 -114 -60c-34 -40 -59 -89 -75 -147c-17 -59 -25 -119 -25 -180c0 -66 10 -122 30 -168
c20 -47 47 -70 81 -70c31 0 55 18 72 54c17 35 25 77 25 124c0 108 -48 191 -157 199l-3 8c18 14 46 21 85 21c59 0 105 -19 139 -58c33 -39 50 -87 50 -142c0 -63 -20 -121 -60 -172z" />
    <glyph glyph-name="seven" unicode="7" horiz-adv-x="483" 
d="M14 -84v5c47 13 121 112 197 249c37 68 69 129 96 182s53 106 78 160l-3 4c-32 -11 -118 -16 -259 -16c-73 0 -87 36 -87 113l7 4c8 -7 24 -12 48 -14s69 -3 134 -3c151 0 237 2 256 5l6 -6c-5 -7 -19 -38 -42 -91c-77 -178 -145 -323 -205 -435
c-69 -128 -111 -188 -167 -188c-24 0 -45 12 -53 23z" />
    <glyph glyph-name="eight" unicode="8" horiz-adv-x="537" 
d="M48 159c0 71 47 124 141 160l5 -5c-29 -53 -43 -103 -43 -151c0 -71 34 -133 105 -133c65 0 113 51 113 120c0 47 -35 93 -63 116c-15 11 -35 26 -61 43c-19 13 -32 22 -41 28s-24 17 -44 34c-20 16 -35 31 -45 45c-21 27 -43 72 -43 113c0 50 21 94 62 131s93 55 157 55
c57 0 103 -15 138 -46s52 -69 52 -116c-4 -56 -19 -85 -60 -114c-15 -11 -28 -19 -37 -24s-24 -13 -44 -23l-7 4c29 55 44 104 44 148c0 81 -45 126 -96 126c-26 0 -50 -10 -72 -31s-33 -48 -33 -82c0 -39 15 -72 44 -100c28 -28 48 -42 85 -65c33 -21 48 -29 85 -60
c19 -15 34 -30 45 -44c22 -28 43 -71 43 -111c0 -49 -20 -94 -60 -133c-41 -39 -95 -59 -164 -59c-65 0 -115 17 -151 51c-37 33 -55 74 -55 123z" />
    <glyph glyph-name="nine" unicode="9" horiz-adv-x="540" 
d="M50 9l8 3s20 -71 99 -71c43 0 81 20 115 60c33 40 58 89 75 148c16 58 24 118 24 179c0 66 -10 122 -30 169c-20 46 -47 69 -81 69c-31 0 -54 -18 -71 -53c-17 -36 -26 -78 -26 -125c0 -108 48 -191 157 -199l3 -8c-18 -14 -46 -21 -85 -21c-59 0 -105 20 -138 59
c-34 39 -51 86 -51 141c0 63 20 121 61 173c40 51 95 77 164 77s122 -27 158 -82c35 -55 53 -124 53 -206c0 -99 -27 -204 -75 -292c-49 -88 -132 -150 -229 -150c-85 0 -135 49 -131 129z" />
    <glyph glyph-name="colon" unicode=":" horiz-adv-x="279" 
d="M54 52c0 37 31 68 67 68c37 0 68 -31 68 -68c0 -36 -31 -67 -68 -67c-36 0 -67 31 -67 67zM148 380c-36 0 -67 31 -67 67c0 37 31 68 67 68c37 0 68 -31 68 -68c0 -36 -31 -67 -68 -67z" />
    <glyph glyph-name="semicolon" unicode=";" horiz-adv-x="277" 
d="M145 380c-36 0 -67 31 -67 67c0 37 31 68 67 68c37 0 68 -31 68 -68c0 -36 -31 -67 -68 -67zM-5 -85l7 6c9 -7 19 -11 30 -11c37 0 70 30 70 67c0 11 -7 23 -22 37s-23 30 -23 47c1 36 28 64 60 64c47 0 71 -39 71 -95c0 -39 -10 -73 -31 -104c-21 -30 -50 -45 -89 -45
c-31 0 -58 14 -66 25z" />
    <glyph glyph-name="less" unicode="&#x3c;" horiz-adv-x="468" 
d="M79 249c-16 8 -31 36 -31 59c0 8 3 14 10 18c177 95 279 153 304 174c23 -25 35 -45 35 -60c5 -6 -64 -45 -122 -76c-19 -10 -42 -22 -68 -36c-27 -14 -46 -24 -59 -31v-5c26 -17 61 -36 105 -59s80 -42 107 -57s40 -24 40 -28c0 -15 -15 -39 -26 -54l-9 -10
c-29 24 -124 79 -286 165z" />
    <glyph glyph-name="equal" unicode="=" horiz-adv-x="468" 
d="M56 341c-2 11 -3 22 -3 34c0 29 8 43 23 43c42 -3 87 -5 134 -5h88c54 0 90 2 109 5c3 -13 4 -28 4 -45c0 -21 -5 -32 -14 -32c-41 3 -85 4 -133 4h-92c-59 0 -97 -1 -116 -4zM56 185c-2 11 -3 22 -3 34c0 29 8 43 23 43c42 -3 87 -5 134 -5h88c54 0 90 2 109 5
c3 -13 4 -28 4 -45c0 -21 -5 -32 -14 -32c-41 3 -85 4 -133 4h-92c-59 0 -97 -1 -116 -4z" />
    <glyph glyph-name="greater" unicode="&#x3e;" horiz-adv-x="468" 
d="M100 84c-23 26 -35 47 -35 64c0 8 59 39 147 85c44 23 79 42 105 59v5c-13 7 -32 17 -58 31c-27 14 -49 26 -68 36s-39 21 -59 32c-41 23 -64 39 -64 44c0 13 15 37 26 50l9 10c25 -21 127 -79 304 -174c7 -4 10 -10 10 -18c0 -23 -15 -51 -31 -59
c-162 -86 -257 -141 -286 -165z" />
    <glyph glyph-name="question" unicode="?" horiz-adv-x="371" 
d="M125 177c-26 0 -39 18 -39 55c0 138 168 196 168 275c0 76 -166 45 -166 165c0 35 13 67 22 80l8 9h8c-1 -2 -1 -5 -1 -9c0 -22 27 -42 81 -59c14 -5 25 -8 33 -11c7 -3 20 -9 38 -18c17 -9 31 -19 42 -28c20 -20 42 -54 42 -93c0 -77 -79 -133 -141 -181
c-43 -33 -77 -79 -77 -127c0 -23 4 -41 12 -54c-12 -3 -22 -4 -30 -4zM72 7c-23 23 -23 59 0 82s59 23 82 0s23 -59 0 -82s-59 -23 -82 0z" />
    <glyph glyph-name="at" unicode="@" horiz-adv-x="910" 
d="M26 173c0 128 47 261 125 366c78 104 207 176 352 176c107 0 195 -33 264 -100c68 -67 102 -153 102 -258c0 -59 -11 -117 -33 -176s-54 -109 -95 -150c-41 -42 -87 -62 -136 -62c-70 0 -105 48 -105 144h-5c-36 -68 -94 -127 -161 -127c-73 0 -116 69 -116 184
c0 95 26 176 79 243c53 66 118 99 195 99c13 0 35 -2 67 -6c31 -4 60 -6 87 -7l3 -3c-31 -183 -46 -307 -46 -374c0 -53 10 -83 43 -83c36 0 69 26 99 79c30 52 45 118 45 198c0 106 -28 187 -85 242s-129 83 -216 83c-119 0 -220 -57 -280 -143s-93 -194 -93 -302
c0 -115 37 -225 115 -295c39 -35 84 -52 135 -52c13 0 26 1 39 4c0 -59 -23 -82 -92 -82c-159 -5 -292 206 -287 402zM330 176c0 -71 16 -126 47 -126c23 0 50 23 81 69c30 45 49 88 56 129c7 39 14 96 19 171c-3 31 -20 46 -51 46c-33 0 -62 -16 -86 -49s-41 -70 -51 -112
c-10 -43 -15 -85 -15 -128z" />
    <glyph glyph-name="A" unicode="A" horiz-adv-x="632" 
d="M-5 -2l-5 2v5c18 13 41 55 70 125l238 583c1 0 33 -1 69 -27c20 -16 44 -50 53 -94c16 -75 38 -166 65 -271c27 -106 50 -184 68 -235c17 -49 30 -76 37 -81v-5c-24 -7 -47 -10 -69 -10c-49 0 -77 20 -84 60c-12 59 -26 120 -41 183c-39 1 -70 2 -95 2
c-38 0 -84 -1 -137 -4c-16 -44 -37 -101 -45 -128c-9 -27 -23 -61 -32 -76c-16 -25 -33 -37 -65 -37c-9 0 -22 4 -27 8zM184 286c40 -1 74 -2 101 -2c24 0 57 1 98 2c-32 131 -59 232 -80 301h-4c-28 -68 -66 -168 -115 -301z" />
    <glyph glyph-name="B" unicode="B" horiz-adv-x="617" 
d="M202 113c0 -45 29 -67 87 -67c99 0 149 46 149 138c0 68 -21 112 -64 135c-44 23 -86 30 -157 33c-10 -125 -15 -205 -15 -239zM219 398c67 -1 121 -6 162 -15c27 49 40 93 40 131c0 83 -37 133 -152 133h-29c-5 -59 -12 -142 -21 -249zM81 0c3 11 10 103 21 277
c11 190 17 311 17 363l-2 62c25 -1 50 -2 76 -2h117c145 0 213 -63 213 -150c0 -64 -38 -131 -102 -174v-5c93 -26 140 -81 140 -166c0 -61 -22 -113 -65 -154c-43 -42 -101 -63 -173 -63c-10 0 -40 2 -90 6s-101 6 -152 6z" />
    <glyph glyph-name="C" unicode="C" horiz-adv-x="667" 
d="M59 317c0 136 58 263 170 340c56 39 119 58 190 58c59 0 122 -8 175 -40c27 -16 40 -36 40 -60c0 -27 -17 -59 -42 -74h-8c-24 35 -47 61 -69 78c-34 25 -71 38 -110 38c-60 0 -113 -28 -158 -84c-46 -57 -69 -133 -69 -230c0 -79 19 -143 57 -194s95 -76 171 -76
c104 0 174 55 192 79l8 9l7 -4c-3 -9 -4 -20 -28 -59c-13 -20 -27 -38 -43 -53c-33 -31 -99 -60 -174 -60c-97 0 -172 32 -227 97c-55 64 -82 142 -82 235z" />
    <glyph glyph-name="D" unicode="D" horiz-adv-x="762" 
d="M76 0c6 19 16 111 30 277c12 145 18 259 18 342c0 54 -1 81 -3 81h201c103 0 189 -20 265 -67c76 -48 123 -138 123 -259c0 -110 -33 -201 -99 -274c-67 -73 -153 -109 -258 -109c-7 0 -40 1 -99 4s-118 5 -178 5zM205 94c0 -20 13 -34 38 -41s51 -11 78 -11
c84 0 150 30 197 91s71 136 71 226c0 212 -146 288 -309 288h-36c-26 -325 -39 -510 -39 -553z" />
    <glyph glyph-name="E" unicode="E" horiz-adv-x="551" 
d="M411 -5l-335 5c9 19 19 111 31 277c11 161 16 279 16 354l-2 69h175c85 0 162 4 190 8l20 2c-5 -32 -7 -40 -18 -59c-12 -19 -32 -24 -65 -24c-67 0 -132 7 -159 12l-19 4c-1 -24 -6 -75 -12 -151c-3 -38 -6 -70 -8 -95h146c23 0 43 4 51 7l5 3c-4 -52 -17 -74 -62 -74
l-145 6c-5 -63 -8 -123 -11 -180c-3 -58 -5 -89 -5 -93l175 5c61 2 104 9 129 22c-1 -44 -7 -71 -18 -82c-12 -11 -38 -16 -79 -16z" />
    <glyph glyph-name="F" unicode="F" horiz-adv-x="500" 
d="M74 0c10 19 21 111 32 277c11 171 17 289 17 354l-2 69h175c85 0 162 4 190 8l20 2c-5 -32 -8 -40 -19 -59s-31 -24 -64 -24c-64 0 -130 7 -158 12l-21 4c-1 -6 -3 -40 -8 -101s-8 -112 -11 -151h146c23 0 43 4 51 7l5 3c-4 -52 -17 -74 -62 -74l-145 6l-6 -94
c-1 -16 -3 -44 -5 -85s-4 -73 -6 -96c-4 -45 -26 -68 -65 -68c-3 0 -24 3 -64 10z" />
    <glyph glyph-name="G" unicode="G" horiz-adv-x="702" 
d="M60 324c0 95 34 190 94 266c60 75 157 125 269 125c43 0 90 -6 138 -18s83 -37 83 -68c0 -28 -19 -69 -42 -84h-8c-50 75 -114 112 -191 112c-58 0 -110 -27 -155 -81c-46 -54 -69 -128 -69 -222c0 -87 19 -160 57 -218c37 -58 93 -87 168 -87c35 0 68 5 101 15
c11 72 16 134 16 186c0 25 -4 52 -7 64l-3 9c7 3 20 5 39 5c63 0 85 -16 85 -73c0 -17 -4 -59 -12 -125s-12 -106 -12 -121c0 -3 1 -7 1 -8l-5 -5c-8 2 -20 3 -36 3c-17 0 -50 -2 -98 -7s-83 -7 -105 -7c-99 0 -175 33 -228 98s-80 145 -80 241z" />
    <glyph glyph-name="H" unicode="H" horiz-adv-x="765" 
d="M72 0c10 19 21 111 33 277c11 141 16 259 16 354l-2 70c19 6 37 9 53 9c41 0 71 -23 71 -59c0 -21 -4 -71 -11 -151c-4 -40 -7 -73 -9 -98c33 -3 84 -4 153 -4c61 0 122 1 183 4c7 115 10 202 10 263l-2 36c19 6 37 9 52 9c44 0 71 -23 71 -62c-1 -21 -4 -63 -10 -126
c-7 -63 -11 -105 -12 -127c-11 -160 -17 -277 -17 -351c0 -19 1 -33 2 -44c-19 -2 -42 -10 -66 -10c-37 0 -56 23 -56 69c0 29 4 78 11 145s12 112 13 135c-38 3 -92 4 -163 4c-57 0 -115 -1 -174 -4l-6 -100c-1 -17 -3 -45 -4 -86c-2 -41 -4 -72 -6 -95
c-4 -45 -26 -68 -66 -68c-3 0 -24 3 -64 10z" />
    <glyph glyph-name="I" unicode="I" horiz-adv-x="316" 
d="M86 39c0 7 1 20 3 41c1 21 4 59 8 114s8 113 12 174c7 97 10 190 10 279l-1 54c19 6 37 9 54 9c48 0 68 -22 68 -77c0 -27 -5 -81 -12 -153c-4 -37 -7 -65 -9 -85c-10 -110 -15 -209 -15 -298c0 -21 1 -52 2 -95c-39 -7 -59 -10 -62 -10c-33 0 -58 19 -58 47z" />
    <glyph glyph-name="J" unicode="J" horiz-adv-x="319" 
d="M51 -111c19 54 35 158 49 311s21 292 21 418c0 43 -2 73 -3 78l-1 5c24 6 43 9 58 9c44 0 66 -24 66 -71c0 -38 -7 -143 -20 -314s-25 -285 -35 -340c-24 -137 -89 -195 -198 -195l-2 8c30 22 52 52 65 91z" />
    <glyph glyph-name="K" unicode="K" horiz-adv-x="632" 
d="M73 0c9 14 19 104 31 271s18 287 18 360l-2 70c18 6 32 9 43 9c44 0 80 -23 80 -59c0 -25 -5 -86 -12 -169c-4 -42 -7 -77 -9 -106h4c112 107 186 181 222 222s57 76 64 105c14 1 24 1 30 1c37 0 55 -9 55 -26c0 -20 -24 -54 -98 -122c-37 -35 -64 -59 -80 -73
c-16 -15 -49 -44 -99 -88v-5c5 -9 13 -20 22 -35s26 -41 51 -79c25 -39 50 -74 73 -105c23 -32 48 -63 75 -94s49 -52 67 -63v-7c-26 -9 -58 -13 -95 -13c-79 -2 -157 122 -208 218c-37 67 -66 122 -79 126l-7 2l-6 -101c-5 -85 -8 -146 -11 -181c-4 -45 -26 -68 -65 -68
c-3 0 -24 3 -64 10z" />
    <glyph glyph-name="L" unicode="L" horiz-adv-x="528" 
d="M409 -5l-332 5c8 19 18 111 30 277c11 167 17 285 17 354l-2 70c18 6 32 9 43 9c47 0 80 -20 80 -57c0 -15 -7 -103 -20 -262c-13 -160 -21 -268 -24 -325l176 5c61 2 103 9 128 22c0 -43 -6 -71 -18 -82s-38 -17 -78 -16z" />
    <glyph glyph-name="M" unicode="M" horiz-adv-x="838" 
d="M76 -2l-6 3c13 25 24 117 35 276c11 160 16 276 16 348l-2 75c21 5 42 8 65 8c33 0 52 -5 57 -16c1 -2 11 -22 28 -60c17 -39 36 -83 58 -132s38 -87 49 -112l37 -95h5c60 113 130 233 211 361c27 43 38 54 82 54c21 0 39 -2 53 -5c-1 -16 -4 -49 -8 -100
c-5 -51 -8 -87 -9 -108c-2 -21 -4 -54 -7 -97s-6 -78 -7 -105s-3 -57 -4 -92s-2 -67 -2 -97c0 -33 1 -68 3 -104c-2 0 -11 -2 -27 -5s-29 -5 -38 -5c-39 0 -57 17 -57 68l30 410l6 97l-4 3l-165 -280c-42 -76 -64 -120 -72 -139c-8 -16 -11 -19 -16 -19c-17 0 -26 4 -29 11
c-18 53 -39 106 -62 161l-62 144c-33 75 -50 115 -51 120l-4 -4c-4 -51 -8 -132 -13 -241s-10 -197 -15 -262c-4 -57 -8 -68 -36 -68c-15 0 -32 4 -39 7z" />
    <glyph glyph-name="N" unicode="N" horiz-adv-x="728" 
d="M77 -2l-6 3c12 18 24 110 35 276c11 161 16 279 16 354l-2 69c16 5 32 8 49 8c21 0 34 -6 40 -17c9 -18 39 -64 92 -139l168 -242c53 -78 82 -122 86 -133l4 4c1 45 4 121 11 226s10 187 10 245l-2 49c11 6 22 9 35 9c32 0 40 -13 40 -41c0 -19 -7 -113 -22 -282
s-22 -286 -22 -351c0 -13 1 -25 2 -36c-13 -4 -27 -6 -40 -6c-19 0 -33 9 -43 27c-17 32 -49 80 -94 144l-171 245c-51 73 -78 117 -80 131l-4 -4c-3 -49 -8 -127 -13 -233c-5 -107 -10 -188 -14 -245s-8 -68 -39 -68c-12 0 -28 4 -36 7z" />
    <glyph glyph-name="O" unicode="O" horiz-adv-x="789" 
d="M183 330c0 -150 64 -290 201 -290c138 -2 235 181 231 346c3 141 -65 273 -202 274c-46 0 -87 -17 -123 -50s-63 -75 -80 -124c-18 -50 -27 -102 -27 -156zM60 311c0 139 54 265 167 345c56 39 121 59 195 59c101 0 179 -30 234 -90s82 -134 82 -221
c0 -141 -56 -274 -168 -357c-57 -41 -121 -62 -194 -62c-101 0 -178 31 -233 94s-83 140 -83 232z" />
    <glyph glyph-name="P" unicode="P" horiz-adv-x="567" 
d="M215 320c8 -1 19 -2 33 -2c53 0 97 18 132 55c34 36 51 77 51 123c0 85 -56 151 -160 151h-29c-1 -8 -6 -62 -14 -163c-9 -101 -13 -155 -13 -164zM87 58c0 10 6 91 17 242s17 257 17 318l-2 85c24 -2 44 -3 59 -3h129c79 0 138 -19 179 -56c40 -37 60 -83 60 -137
c0 -100 -65 -178 -148 -212c-41 -17 -85 -26 -130 -26c-23 0 -41 1 -55 4c-5 -77 -7 -143 -7 -200c0 -17 1 -41 2 -73c-39 -7 -60 -10 -63 -10c-39 0 -58 17 -58 68z" />
    <glyph glyph-name="Q" unicode="Q" horiz-adv-x="789" 
d="M60 311c0 139 54 265 167 345c56 39 121 59 195 59c101 0 179 -30 234 -90s82 -134 82 -221c0 -135 -51 -263 -154 -347c-52 -42 -112 -66 -179 -71v-5c32 -29 73 -53 123 -73c49 -20 100 -30 152 -30c58 0 98 6 121 19l5 -3c-5 -48 -16 -80 -33 -96
c-17 -15 -50 -23 -99 -23c-45 0 -100 14 -164 43s-128 91 -167 168c-91 7 -160 42 -209 103s-74 135 -74 222zM183 330c0 -81 17 -150 52 -206c34 -56 84 -84 149 -84c138 -2 235 181 231 346c0 76 -17 141 -52 194s-85 80 -150 80c-46 0 -87 -17 -123 -50s-63 -75 -80 -124
c-18 -50 -27 -102 -27 -156z" />
    <glyph glyph-name="R" unicode="R" horiz-adv-x="634" 
d="M73 0l1 4c3 7 7 31 12 68c5 36 12 112 19 205c12 170 18 284 18 342l-2 83c25 -1 50 -2 76 -2h113c155 0 239 -71 239 -174c0 -67 -28 -123 -63 -151s-72 -47 -96 -52l-19 -4v-5c11 -19 26 -42 45 -71c18 -29 48 -70 91 -125c42 -55 76 -89 102 -103v-8
c-29 -9 -61 -13 -95 -13c-29 0 -59 15 -89 44s-55 61 -74 97c-20 35 -40 71 -61 107s-38 58 -49 67l-24 5c-3 -69 -7 -155 -14 -256c-3 -45 -25 -68 -66 -68c-5 0 -26 3 -64 10zM220 365c9 0 33 -1 42 -1c107 0 176 34 176 145c0 83 -51 138 -164 138h-32
c-3 -33 -8 -87 -13 -162s-8 -115 -9 -120z" />
    <glyph glyph-name="S" unicode="S" horiz-adv-x="568" 
d="M38 76c0 24 14 48 42 71h7c3 -5 6 -12 27 -36c11 -12 22 -22 35 -31c25 -18 71 -36 118 -36c88 0 132 52 132 112c0 163 -316 143 -316 350c0 63 25 114 75 152c49 38 106 57 169 57c36 0 74 -4 118 -13s75 -31 75 -59c0 -23 -19 -60 -44 -77h-7c0 2 -20 32 -58 62
c-23 16 -60 33 -96 33c-34 0 -63 -11 -86 -33c-24 -23 -36 -50 -36 -81c0 -90 114 -128 205 -175c62 -32 111 -90 111 -169c0 -68 -26 -121 -77 -160s-111 -58 -179 -58c-47 0 -95 8 -143 25c-48 16 -72 38 -72 66z" />
    <glyph glyph-name="T" unicode="T" horiz-adv-x="573" 
d="M211 48c0 5 6 85 17 239s17 268 17 343c-41 1 -74 1 -99 1c-33 0 -70 -3 -110 -9c-1 7 -1 14 -1 22c0 41 9 61 26 61c213 -3 351 -5 415 -5c34 0 69 3 104 10c1 -11 1 -22 1 -35c0 -32 -7 -48 -21 -48c-61 1 -126 1 -195 2c-2 -31 -5 -75 -10 -133
c-5 -59 -9 -106 -12 -141s-6 -78 -8 -127c-3 -50 -4 -96 -4 -138c0 -20 1 -50 2 -90c-40 -7 -61 -10 -63 -10c-39 0 -59 19 -59 58z" />
    <glyph glyph-name="U" unicode="U" horiz-adv-x="722" 
d="M93 276c0 21 3 79 10 173c6 94 9 165 9 212l-1 40c21 6 41 9 59 9c43 0 65 -25 65 -75c0 -15 -4 -75 -13 -182s-14 -173 -14 -199c0 -129 58 -209 163 -209c104 0 166 84 186 252c12 96 18 231 18 404c21 6 38 9 51 9c24 0 31 -12 31 -43c0 -54 -10 -173 -30 -357
c-24 -221 -102 -325 -277 -325c-171 0 -257 97 -257 291z" />
    <glyph glyph-name="V" unicode="V" horiz-adv-x="617" 
d="M199 105c-55 249 -99 416 -131 502c-13 37 -29 69 -34 80l-5 8c15 9 44 13 87 13c35 0 69 -25 76 -65c21 -127 65 -303 134 -528h3c23 59 52 125 87 198s61 131 78 175c17 43 25 83 25 119c0 31 -15 61 -27 73l-9 10v8c22 7 38 10 48 10c52 0 76 -17 76 -58
c0 -31 -17 -85 -50 -162c-34 -77 -74 -164 -119 -263s-77 -179 -96 -240c-7 0 -14 0 -42 9c-15 5 -28 11 -40 19c-24 15 -52 49 -61 92z" />
    <glyph glyph-name="W" unicode="W" horiz-adv-x="943" 
d="M200 105c-59 258 -103 425 -132 502c-13 37 -27 69 -34 80l-4 8c15 9 43 13 86 13c36 0 69 -24 76 -65c9 -57 28 -139 55 -246s53 -201 78 -281h5c77 185 116 298 116 340c0 25 -5 57 -14 97c-9 39 -19 73 -28 101l-13 41c6 9 29 13 69 13c35 0 71 -25 76 -65
c9 -61 25 -146 48 -253c23 -108 45 -199 66 -274h5c23 59 52 125 87 198s61 131 78 175c17 43 25 83 25 119c0 31 -15 61 -27 74l-9 9v8c22 7 38 10 48 10c52 0 76 -17 76 -58c0 -31 -17 -85 -50 -162c-34 -77 -74 -164 -119 -263s-77 -179 -96 -240c-3 0 -42 2 -83 28
c-25 15 -52 48 -60 91c-3 12 -7 33 -12 63c-6 29 -12 59 -17 88c-6 29 -12 57 -18 84h-5c-2 -15 -6 -30 -11 -43l-88 -214l-35 -98c-7 0 -13 -1 -41 7c-14 5 -27 11 -38 19c-23 15 -49 49 -60 94z" />
    <glyph glyph-name="X" unicode="X" horiz-adv-x="631" 
d="M6 3v8c25 10 70 59 135 146c64 87 104 145 119 173c-2 5 -10 23 -24 54s-25 55 -32 71s-18 39 -33 69c-30 60 -49 90 -77 127c-15 19 -28 32 -40 41v8c25 5 52 8 82 8c44 0 69 -13 81 -26c5 -7 13 -19 24 -36s44 -89 101 -217h5c31 47 67 106 101 163c17 28 27 46 32 54
c27 43 53 62 102 62c20 0 36 -3 48 -8v-8c-17 -8 -38 -28 -65 -60c-28 -33 -48 -59 -80 -106c-34 -50 -44 -62 -78 -115c-17 -25 -28 -41 -34 -50c42 -88 81 -161 116 -219c35 -59 60 -95 75 -110l21 -22v-8c-25 -7 -48 -10 -69 -10c-44 -4 -73 12 -102 45
c-17 19 -47 73 -70 121c-12 24 -28 58 -49 103h-5l-61 -97c-45 -72 -78 -119 -98 -140s-44 -32 -71 -32c-19 0 -37 4 -54 11z" />
    <glyph glyph-name="Y" unicode="Y" horiz-adv-x="610" 
d="M234 48c0 28 3 60 11 147c3 43 7 90 10 139c-25 29 -72 114 -122 210c-25 48 -43 80 -52 95c-11 17 -27 37 -35 46l-7 7v8c17 5 41 8 72 8c30 0 50 -3 61 -10c10 -7 20 -21 29 -42c34 -77 79 -160 135 -251h5c21 33 43 66 64 101c21 34 36 60 47 79s22 37 35 56
c35 52 52 63 95 67c15 0 35 -3 46 -6l7 -2v-8c-23 -16 -45 -37 -66 -62c-23 -29 -60 -80 -110 -151c-50 -72 -82 -120 -95 -143c-7 -98 -11 -178 -11 -240c0 -32 1 -64 3 -96c-39 -7 -60 -10 -63 -10c-39 0 -59 19 -59 58z" />
    <glyph glyph-name="Z" unicode="Z" horiz-adv-x="570" 
d="M252 0h-221c0 4 0 12 1 25c1 23 7 42 17 57c41 61 101 156 180 285c79 128 132 217 157 267v4c-24 -7 -108 -11 -251 -11c-51 0 -68 20 -68 72v11c41 -7 123 -10 247 -10h223c-2 -36 -11 -65 -26 -87c-49 -71 -105 -156 -166 -257s-107 -180 -137 -236
c-7 -13 -19 -31 -35 -52l2 -4c17 7 107 11 271 11c57 0 73 -10 73 -47c0 -8 -3 -31 -3 -38c-43 7 -131 10 -264 10z" />
    <glyph glyph-name="bracketleft" unicode="[" horiz-adv-x="309" 
d="M128 -41l-4 -46h137c1 -7 1 -14 1 -22c0 -31 -5 -46 -15 -46h-156c-26 0 -39 7 -39 22c0 6 10 135 29 388s29 401 29 445h206c1 -7 1 -15 1 -24c0 -27 -5 -40 -15 -40h-124c-5 -61 -15 -184 -28 -370s-21 -288 -22 -307z" />
    <glyph glyph-name="backslash" unicode="\" horiz-adv-x="291" 
d="M145 -148c-1 7 -7 63 -17 171c-10 107 -20 220 -31 340s-18 193 -21 218c-5 49 -10 84 -16 107c21 9 39 13 56 13c11 0 17 -3 18 -10c1 -4 6 -59 16 -166s21 -220 32 -341s19 -195 22 -222c5 -55 11 -93 16 -114c-17 -7 -33 -11 -47 -11c-16 0 -25 5 -28 15z" />
    <glyph glyph-name="bracketright" unicode="]" horiz-adv-x="309" 
d="M-14 -129l5 42h137l4 46c11 135 26 361 44 677h-124c-7 0 -11 7 -11 21l5 43h206c-3 -17 -7 -52 -11 -104l-47 -728c-1 -15 -14 -23 -41 -23h-156c-7 0 -11 9 -11 26z" />
    <glyph glyph-name="asciicircum" unicode="^" horiz-adv-x="594" 
d="M137 366c-13 0 -38 15 -51 26l-10 9c10 11 28 40 55 87c26 47 52 94 77 141s38 70 39 71c5 8 14 12 29 12c24 0 41 -9 51 -28c0 -1 6 -11 17 -32s24 -43 37 -66s27 -48 42 -75c30 -53 57 -98 69 -113c-24 -23 -44 -35 -61 -35c-5 0 -8 2 -10 5c-55 106 -101 188 -136 247
h-5l-133 -244c-2 -3 -5 -5 -10 -5z" />
    <glyph glyph-name="underscore" unicode="_" horiz-adv-x="560" 
d="M7 -10c40 -3 82 -5 127 -5h271c51 0 85 2 103 5c3 -13 4 -28 4 -45c0 -21 -4 -32 -13 -32c-39 3 -81 4 -127 4h-274c-55 0 -92 -1 -110 -4c-2 11 -3 22 -3 34c0 29 7 43 22 43z" />
    <glyph glyph-name="grave" unicode="`" horiz-adv-x="400" 
d="M269 571c-31 0 -67 14 -106 41c-40 27 -63 57 -69 89c4 7 8 17 36 35c14 9 29 13 45 13c29 -81 71 -138 126 -169v-5c-7 -3 -18 -4 -32 -4z" />
    <glyph glyph-name="a" unicode="a" 
d="M157 -14c-76 0 -123 71 -123 183c0 97 27 178 81 245s122 100 204 100c10 0 31 -2 63 -7s61 -7 88 -8l3 -3c-12 -43 -26 -142 -41 -297c-6 -57 -9 -91 -9 -103c0 -27 9 -40 28 -40c28 0 61 31 77 58l11 19l7 -4c-1 -8 -2 -16 -17 -48c-8 -16 -17 -30 -26 -42
c-20 -25 -58 -49 -102 -49c-55 0 -82 27 -82 82c0 11 2 24 5 41h-5c-36 -69 -94 -127 -162 -127zM197 50c27 0 55 23 86 69c30 45 48 88 55 129c7 47 14 104 19 171c-3 32 -20 48 -51 48c-114 0 -164 -172 -164 -291c0 -69 22 -126 55 -126z" />
    <glyph glyph-name="b" unicode="b" horiz-adv-x="522" 
d="M54 74c0 7 8 79 25 215c16 135 24 248 24 338c0 51 -3 95 -9 131c49 0 80 -9 95 -26s22 -48 22 -91c0 -53 -7 -138 -21 -254c11 21 23 41 50 73s67 54 108 54c79 0 131 -78 131 -197c0 -93 -29 -171 -86 -235c-57 -65 -130 -97 -218 -97c-81 0 -121 30 -121 89zM157 102
c0 -47 19 -71 58 -71c52 0 96 47 119 111c23 63 34 126 34 177c0 65 -19 123 -58 123c-24 0 -50 -19 -78 -57s-47 -77 -58 -116c-11 -95 -17 -150 -17 -167z" />
    <glyph glyph-name="c" unicode="c" horiz-adv-x="461" 
d="M34 209c0 81 25 153 76 214c50 61 109 91 177 91c34 0 67 -6 100 -18c33 -13 49 -31 49 -56s-22 -49 -38 -57l-13 -6h-5c-24 55 -66 93 -102 93c-42 0 -75 -24 -99 -73c-25 -49 -37 -106 -37 -169c0 -96 47 -169 123 -169c49 0 101 31 121 55l16 18l8 -3
c-1 -8 -2 -17 -21 -49c-9 -17 -20 -31 -32 -44c-24 -25 -73 -50 -129 -50c-57 0 -104 21 -140 62s-54 95 -54 161z" />
    <glyph glyph-name="d" unicode="d" horiz-adv-x="574" 
d="M167 -14c-84 0 -135 74 -135 191c0 94 29 173 86 238s126 97 209 97c19 0 36 -2 50 -6c3 56 4 98 4 127c0 47 -5 89 -14 124c51 0 85 -8 100 -25s22 -48 22 -92c0 -59 -9 -159 -26 -302c-18 -143 -27 -224 -27 -242c0 -27 9 -40 28 -40c28 0 61 31 76 58l12 19l7 -4
c-1 -8 -2 -16 -17 -48c-8 -16 -17 -30 -26 -42c-20 -25 -58 -49 -102 -49c-55 0 -82 27 -82 82c0 11 2 24 5 41h-5c-47 -85 -102 -127 -165 -127zM207 50c28 0 57 23 88 68s49 88 56 129c7 46 14 103 19 172c-3 31 -21 46 -56 46c-36 0 -67 -15 -94 -46s-47 -68 -59 -109
s-18 -83 -18 -125c0 -75 21 -135 64 -135z" />
    <glyph glyph-name="e" unicode="e" horiz-adv-x="462" 
d="M34 209c0 81 25 153 74 214s108 91 175 91c87 0 141 -50 141 -115c0 -68 -39 -116 -100 -140s-115 -32 -182 -35c1 -95 48 -165 123 -165c49 0 98 31 117 55l15 18l8 -3c-1 -8 -3 -17 -19 -49c-9 -17 -19 -31 -30 -44c-24 -25 -72 -50 -128 -50c-57 0 -104 21 -140 62
s-54 95 -54 161zM143 263c101 4 175 43 175 136c0 36 -20 72 -44 72c-33 0 -62 -21 -86 -62c-25 -42 -40 -91 -45 -146z" />
    <glyph glyph-name="f" unicode="f" horiz-adv-x="324" 
d="M-40 -229l-3 9c53 39 91 119 110 191c9 37 17 81 22 133s8 94 9 126c1 31 1 70 1 116s-3 74 -8 84s-23 19 -52 28l2 42c33 0 54 8 65 24c8 70 35 129 80 177s101 72 168 72c32 0 62 -6 91 -17s43 -29 43 -54s-21 -47 -38 -54l-12 -6h-5c-21 44 -65 72 -104 72
s-69 -21 -91 -63c-23 -42 -34 -92 -35 -151h76c21 0 38 3 45 4l4 2c0 -61 -20 -75 -69 -75c-11 0 -43 2 -59 2c-1 -19 -1 -51 -2 -95s-2 -79 -3 -104c-1 -26 -4 -60 -8 -101c-4 -42 -9 -76 -15 -102c-6 -27 -15 -56 -26 -89c-12 -33 -26 -59 -42 -80
c-32 -40 -81 -78 -144 -91z" />
    <glyph glyph-name="g" unicode="g" horiz-adv-x="516" 
d="M29 -112c0 44 31 62 91 79l6 -5c-8 -13 -12 -30 -12 -53c0 -55 28 -99 87 -99c67 0 124 57 124 154c0 8 -1 23 -2 44s-2 39 -2 54c0 18 1 35 2 51h-5c-36 -60 -94 -112 -161 -112c-76 0 -124 67 -124 179c0 91 27 169 81 234s121 98 201 98c13 0 35 -2 67 -6
c31 -4 60 -6 87 -7l3 -3c-18 -68 -32 -168 -41 -301c-1 -24 -4 -78 -6 -108c-1 -15 -3 -34 -5 -57c-5 -45 -11 -71 -22 -110c-28 -87 -83 -149 -201 -150c-55 0 -96 12 -125 36c-29 25 -43 52 -43 82zM198 65c25 0 53 21 84 64c30 42 48 82 55 119c7 35 13 92 19 171
c-3 31 -20 46 -52 46c-35 0 -66 -16 -92 -49s-44 -69 -55 -110s-17 -81 -17 -120c0 -71 22 -121 58 -121z" />
    <glyph glyph-name="h" unicode="h" horiz-adv-x="589" 
d="M50 -8c3 26 11 88 24 187s22 182 28 251c6 68 9 134 9 198c0 50 -3 93 -9 129c50 0 82 -9 96 -26s21 -52 21 -104c0 -29 -2 -65 -5 -106c-4 -42 -8 -77 -12 -104l-5 -41h5c45 85 96 138 179 138c77 0 104 -47 104 -130c0 -32 -5 -81 -16 -148s-16 -112 -16 -136
c0 -29 10 -44 29 -44c29 0 63 31 78 58l12 19l7 -4c-1 -8 -2 -16 -17 -48c-8 -16 -17 -30 -26 -42c-20 -25 -58 -49 -101 -49c-52 0 -83 27 -83 79c0 14 5 58 15 133s15 128 15 161c0 60 -13 85 -45 85c-48 0 -91 -58 -123 -131c-31 -72 -46 -154 -46 -245
c0 -38 -6 -61 -19 -68c-13 -8 -46 -12 -99 -12z" />
    <glyph glyph-name="i" unicode="i" horiz-adv-x="296" 
d="M59 69c0 12 5 58 15 137s15 142 16 187c0 37 -5 77 -10 94l-3 13c22 7 41 10 57 10c40 0 63 -27 63 -74c0 -37 -6 -94 -18 -173c-13 -79 -19 -133 -19 -163c0 -29 10 -44 29 -44c29 0 63 31 79 58l11 19l7 -4c-1 -8 -2 -16 -17 -48c-8 -16 -17 -30 -26 -42
c-20 -25 -58 -49 -101 -49c-52 0 -83 27 -83 79zM157 599c-33 0 -65 30 -65 65s30 66 65 66s66 -31 66 -66s-31 -65 -66 -65z" />
    <glyph glyph-name="j" unicode="j" horiz-adv-x="271" 
d="M47 -46c10 51 20 117 31 200c9 76 14 152 14 227c0 48 -5 92 -10 107l-3 12c21 7 41 10 60 10c40 0 57 -21 57 -98c0 -47 -5 -117 -14 -212s-19 -167 -30 -214c-29 -131 -96 -196 -201 -196l-2 8c65 41 83 83 98 156zM159 599c-33 0 -65 30 -65 65s30 66 65 66
s66 -31 66 -66s-31 -65 -66 -65z" />
    <glyph glyph-name="k" unicode="k" horiz-adv-x="525" 
d="M50 -8c4 35 11 88 20 158s16 126 21 168s9 92 14 150c4 58 6 110 6 157c0 52 -3 96 -9 132c49 0 81 -8 96 -25c14 -17 21 -48 21 -92c0 -59 -10 -174 -30 -347h10c62 26 104 48 126 65c21 17 32 35 32 54c0 31 -26 46 -46 46l-15 -1v10c29 27 61 41 95 41
c47 0 65 -35 65 -72c0 -65 -62 -104 -173 -140l-1 -8c14 -37 47 -89 100 -157c52 -68 89 -102 112 -102v-9c-15 -18 -38 -27 -69 -27c-73 -4 -136 79 -170 145c-12 21 -24 44 -35 69c-11 24 -19 39 -23 46l-12 1c-11 -94 -17 -158 -17 -193c0 -31 -7 -51 -21 -58
s-46 -11 -97 -11z" />
    <glyph glyph-name="l" unicode="l" horiz-adv-x="296" 
d="M56 69c0 11 8 84 25 219c16 135 24 248 24 340c0 50 -3 93 -9 129c50 0 82 -9 96 -26s21 -52 21 -104c0 -47 -9 -143 -26 -288c-18 -145 -27 -224 -27 -239c0 -29 9 -44 26 -44c29 0 63 31 78 58l12 19l7 -4c-1 -8 -2 -16 -17 -48c-8 -16 -17 -30 -26 -42
c-20 -25 -58 -49 -101 -49c-52 0 -83 27 -83 79z" />
    <glyph glyph-name="m" unicode="m" horiz-adv-x="850" 
d="M59 -8c0 31 6 96 19 197c12 101 18 169 18 204c0 37 -5 77 -10 94l-3 13c22 7 41 10 57 10c40 0 63 -27 63 -74c0 -17 -4 -40 -7 -52l-2 -8h5c43 85 92 138 169 138c76 0 100 -51 100 -138h5c43 85 92 138 169 138s104 -47 104 -130c0 -32 -5 -81 -16 -148
s-16 -112 -16 -136c0 -29 10 -44 29 -44c29 0 63 31 79 58l11 19l7 -4c-1 -8 -2 -16 -17 -48c-8 -16 -17 -30 -26 -42c-20 -25 -58 -49 -101 -49c-52 0 -83 27 -83 79c0 14 5 58 15 133s15 128 15 161c0 60 -13 85 -45 85c-41 0 -78 -44 -113 -131
c-29 -69 -44 -151 -44 -245c0 -39 -5 -62 -16 -69s-41 -11 -92 -11c0 26 6 84 18 175c12 90 18 155 18 196c0 57 -15 85 -45 85c-41 0 -78 -44 -113 -131c-29 -69 -44 -151 -44 -245c0 -39 -5 -62 -16 -69s-41 -11 -92 -11z" />
    <glyph glyph-name="n" unicode="n" horiz-adv-x="585" 
d="M58 -8c0 31 6 96 19 197c12 101 18 169 18 204c0 37 -6 77 -10 94l-3 13c22 7 41 10 57 10c40 0 63 -27 63 -74c0 -17 -3 -40 -6 -52l-3 -8h5c45 85 96 138 179 138c77 0 104 -47 104 -130c0 -32 -5 -81 -16 -148s-16 -112 -16 -136c0 -29 10 -44 29 -44
c29 0 63 31 78 58l12 19l7 -4c-1 -8 -2 -16 -17 -48c-8 -16 -17 -30 -26 -42c-20 -25 -58 -49 -101 -49c-52 0 -83 27 -83 79c0 14 5 58 15 133s15 128 15 161c0 60 -13 85 -45 85c-48 0 -91 -58 -123 -131c-29 -69 -44 -151 -44 -245c0 -39 -5 -62 -16 -69s-41 -11 -92 -11
z" />
    <glyph glyph-name="o" unicode="o" 
d="M255 31c44 0 79 26 106 79c26 53 39 112 39 178c0 104 -35 181 -110 181c-31 0 -58 -14 -80 -41c-23 -28 -38 -60 -47 -97s-14 -76 -14 -117c0 -107 35 -183 106 -183zM35 227c0 96 36 187 116 244c40 29 86 43 139 43c69 0 124 -23 164 -68s60 -102 60 -169
c0 -76 -24 -143 -71 -202s-110 -89 -188 -89c-68 0 -122 23 -161 69c-39 45 -59 103 -59 172z" />
    <glyph glyph-name="p" unicode="p" horiz-adv-x="545" 
d="M47 -139c0 59 8 158 25 297s25 217 25 235c0 37 -6 77 -10 94l-3 13c22 7 41 10 57 10c40 0 63 -27 63 -74c0 -7 -2 -23 -7 -48h5c47 84 102 126 165 126c84 0 135 -74 135 -190c0 -94 -28 -173 -85 -238s-127 -97 -210 -97c-23 0 -41 2 -52 7c-3 -37 -4 -80 -4 -128
c0 -37 5 -69 14 -94c-21 -3 -37 -5 -47 -5c-61 0 -71 29 -71 92zM163 91c1 -37 20 -55 57 -55c36 0 68 16 95 47s46 67 58 108s18 83 18 125c0 75 -21 135 -64 135c-28 0 -58 -24 -90 -72c-32 -49 -50 -91 -55 -127c-11 -83 -17 -137 -19 -161z" />
    <glyph glyph-name="q" unicode="q" horiz-adv-x="521" 
d="M164 -15c-79 0 -131 75 -131 194c0 93 29 171 86 236c57 64 130 96 218 96c81 0 121 -30 121 -89c0 -7 -8 -77 -25 -212s-26 -247 -26 -336c0 -40 3 -72 9 -96c-13 -3 -28 -5 -47 -5c-63 6 -67 33 -66 87c0 59 7 143 20 253c-9 -19 -20 -36 -47 -70
c-28 -34 -69 -58 -112 -58zM202 54c25 0 51 20 79 59s47 79 57 118c11 81 17 136 17 163c0 47 -19 71 -58 71c-52 0 -96 -47 -119 -110c-23 -64 -34 -127 -34 -178c0 -65 19 -123 58 -123z" />
    <glyph glyph-name="r" unicode="r" horiz-adv-x="409" 
d="M59 -8c0 31 6 96 19 197c12 101 18 169 18 204c0 37 -5 77 -10 94l-3 13c22 7 41 10 57 10c40 0 63 -27 63 -74c0 -17 -4 -40 -7 -52l-2 -8h5c44 89 95 134 154 134c40 0 57 -22 57 -49c0 -23 -8 -44 -24 -61l-5 -2c-23 19 -46 28 -67 28c-37 0 -72 -36 -103 -109
c-29 -68 -44 -150 -44 -245c0 -39 -5 -62 -16 -69s-41 -11 -92 -11z" />
    <glyph glyph-name="s" unicode="s" horiz-adv-x="407" 
d="M15 57c0 19 11 42 19 53l7 8h5c4 -4 7 -10 27 -30c10 -10 20 -19 31 -26c20 -15 52 -30 80 -30c48 0 79 28 79 71c0 110 -207 106 -207 261c0 93 78 150 183 150c86 0 129 -18 129 -55c0 -19 -11 -41 -22 -52l-7 -8h-5c-8 11 -17 25 -56 50c-20 13 -39 19 -58 19
c-43 0 -77 -22 -77 -66c0 -109 209 -101 209 -258c0 -49 -18 -88 -54 -116s-78 -42 -127 -42c-47 0 -91 5 -128 28c-19 11 -28 26 -28 43z" />
    <glyph glyph-name="t" unicode="t" horiz-adv-x="360" 
d="M69 115c0 17 4 58 13 121c8 63 12 118 12 163c0 36 -8 47 -36 59l3 42c53 8 110 59 138 115l25 -10l-19 -105h70c24 0 42 1 47 4l3 1c0 -49 -17 -73 -52 -73l-74 2c-17 -108 -26 -201 -26 -279c0 -65 7 -89 44 -89s72 27 106 82l7 -4c-7 -36 -18 -66 -39 -99
s-58 -55 -105 -55c-73 0 -117 44 -117 125z" />
    <glyph glyph-name="u" unicode="u" horiz-adv-x="579" 
d="M58 111c0 26 5 71 15 135s15 116 15 155l-6 99c21 7 39 10 55 10c39 0 59 -28 59 -83c0 -24 -6 -71 -17 -142c-12 -71 -18 -122 -18 -152c0 -53 16 -80 48 -80c43 0 84 43 123 130c28 63 42 131 42 204c0 43 -3 84 -4 101l-2 12c22 7 41 10 57 10c37 0 56 -26 56 -78
c0 -23 -6 -74 -18 -153s-18 -134 -18 -165c0 -39 10 -58 31 -58c27 0 59 31 74 58l12 19l7 -4c-1 -8 -2 -16 -17 -48c-8 -16 -17 -30 -26 -42c-20 -25 -58 -49 -102 -49c-55 0 -83 25 -83 76l7 58h-5c-45 -87 -96 -138 -180 -138c-80 0 -105 49 -105 125z" />
    <glyph glyph-name="v" unicode="v" horiz-adv-x="473" 
d="M152 41c-25 33 -48 77 -69 133c-21 55 -32 113 -32 174s9 105 27 131c18 25 54 38 109 38l2 -8c-10 -15 -18 -38 -23 -69s-8 -59 -8 -84c0 -55 8 -107 25 -158s34 -90 52 -116h4c12 29 32 67 59 114s49 88 66 125s26 68 26 95c0 32 -13 60 -24 69l-8 7v8c13 5 29 8 47 8
c39 0 59 -18 59 -55c0 -24 -9 -57 -28 -98s-41 -82 -64 -121c-24 -39 -49 -83 -74 -130c-25 -48 -43 -88 -53 -119c-45 9 -66 21 -93 56z" />
    <glyph glyph-name="w" unicode="w" horiz-adv-x="719" 
d="M149 41c-65 84 -98 189 -98 314c0 107 31 162 136 162l2 -8c-10 -16 -18 -41 -24 -75c-7 -35 -10 -65 -10 -92c0 -51 8 -100 25 -149s34 -86 52 -111h4c31 61 53 113 68 156s22 87 22 134c0 81 13 136 65 136c17 0 38 -6 49 -10l8 -4c-15 -71 -23 -125 -23 -163
c0 -37 8 -83 23 -136c15 -54 28 -92 41 -113h4c11 29 30 67 55 114s46 88 62 125s24 68 24 95c0 32 -13 60 -24 69l-8 7v8c13 5 29 8 47 8c39 0 59 -18 59 -55c0 -30 -14 -73 -42 -129c-28 -57 -60 -118 -96 -183c-36 -66 -60 -118 -71 -156c-48 9 -69 21 -92 56
c-27 40 -47 92 -62 157h-5c-7 -16 -24 -50 -49 -102s-42 -89 -49 -111c-47 9 -66 21 -93 56z" />
    <glyph glyph-name="x" unicode="x" horiz-adv-x="518" 
d="M11 44c0 7 1 13 3 19l7 4c9 -3 17 -4 26 -4c35 0 66 28 94 66c8 12 25 38 33 51c7 12 25 43 32 54c-49 143 -81 213 -118 213c-8 0 -19 -4 -26 -7l-4 -2l-6 7c7 9 12 22 47 46c17 11 34 17 51 17c27 0 48 -14 65 -41s37 -75 60 -143c21 36 37 61 46 76s22 33 37 54
c31 42 54 54 82 54c33 0 51 -25 51 -54c0 -7 -1 -14 -3 -20l-7 -4c-9 3 -18 4 -27 4c-29 0 -59 -17 -88 -53c-15 -19 -27 -35 -36 -49c-10 -14 -23 -34 -38 -59c29 -82 52 -139 69 -170s35 -47 52 -47c15 0 34 13 45 22l8 8l8 -5c-3 -5 -3 -11 -18 -32
c-7 -11 -15 -20 -23 -28c-17 -16 -47 -32 -76 -32c-30 0 -53 13 -69 40c-17 27 -38 78 -64 154c-11 -17 -33 -57 -41 -72c-5 -7 -11 -17 -18 -30c-16 -25 -21 -32 -34 -49c-22 -28 -44 -43 -69 -43c-33 0 -51 24 -51 55z" />
    <glyph glyph-name="y" unicode="y" horiz-adv-x="467" 
d="M-53 -138l3 8c25 -7 47 -10 67 -10c56 0 109 33 160 100c-49 278 -105 456 -167 535v5c24 5 45 8 64 8c32 0 49 -8 70 -41c44 -69 77 -200 100 -393c5 10 14 31 29 63c15 31 26 56 33 73s15 38 26 65c20 52 28 96 28 135c0 37 -13 67 -24 76l-8 6v8c13 5 29 8 47 8
c39 0 59 -19 59 -58c0 -43 -18 -107 -54 -191c-37 -85 -65 -143 -84 -176c-3 -5 -9 -17 -19 -36c-11 -19 -19 -35 -26 -48c-14 -25 -43 -75 -65 -104c-22 -28 -57 -67 -85 -88c-29 -21 -67 -37 -102 -37c-41 0 -61 16 -61 47c0 13 5 33 9 45z" />
    <glyph glyph-name="z" unicode="z" horiz-adv-x="438" 
d="M265 0h-260c0 1 -1 10 -1 14c0 15 5 30 15 45c7 11 50 64 129 158c78 93 130 159 157 197c-41 -7 -95 -11 -162 -11c-73 0 -87 33 -87 110l7 4c8 -7 24 -12 48 -14s69 -3 134 -3h164l-1 -12c-1 -16 -8 -33 -19 -51c-16 -25 -62 -82 -138 -172
c-77 -90 -126 -150 -148 -180c54 8 115 12 184 12c87 0 103 -66 103 -105l-7 -4c-7 6 -16 9 -29 10s-43 2 -89 2z" />
    <glyph glyph-name="braceleft" unicode="{" horiz-adv-x="320" 
d="M79 82c0 95 -12 149 -26 165c-7 7 -16 12 -27 15l2 22c48 0 78 91 91 273c4 54 22 96 55 126c32 29 66 44 102 44c20 0 43 -9 52 -17l8 -6l-3 -5c-75 -1 -125 -54 -132 -151c-7 -96 -25 -174 -44 -211s-37 -61 -49 -66l-9 -4v-5c1 0 22 -1 42 -46c11 -27 22 -87 22 -164
c0 -12 -1 -33 -3 -64s-3 -54 -3 -71c0 -67 20 -105 88 -105l24 2l3 -5c-20 -23 -50 -34 -91 -34c-61 0 -109 46 -109 127c0 18 1 47 4 86c2 40 3 71 3 94z" />
    <glyph glyph-name="bar" unicode="|" horiz-adv-x="263" 
d="M159 -51c0 -59 1 -97 4 -116c-10 -2 -21 -3 -32 -3c-27 0 -41 8 -41 23c0 57 1 187 3 391c1 203 2 319 2 347c0 54 -2 90 -5 109c13 3 27 4 43 4c20 0 30 -5 30 -14c-3 -427 -4 -674 -4 -741z" />
    <glyph glyph-name="braceright" unicode="}" horiz-adv-x="321" 
d="M108 -37c8 111 27 196 46 234s38 60 50 63l8 2v5s-23 6 -42 53c-12 27 -23 85 -23 157c0 13 3 71 3 89c0 85 -42 130 -110 133l-3 5c24 15 48 23 71 23c67 0 126 -52 126 -153c0 -17 -1 -40 -2 -67c-1 -28 -2 -47 -2 -58c0 -110 19 -165 57 -165l-2 -22
c-15 -3 -27 -12 -37 -25c-11 -14 -22 -47 -33 -100c-12 -53 -21 -126 -28 -220c-3 -43 -18 -78 -44 -104c-27 -25 -56 -38 -88 -38c-38 0 -65 11 -81 34l3 5c7 -1 15 -2 23 -2c54 0 80 26 94 65c10 29 11 49 14 86z" />
    <glyph glyph-name="asciitilde" unicode="~" horiz-adv-x="552" 
d="M57 219l-4 3c11 73 58 122 122 122c31 0 68 -8 113 -23c45 -16 79 -24 102 -24c32 0 66 16 102 49l4 -3c-11 -73 -58 -122 -122 -122c-31 0 -69 8 -114 24c-45 15 -78 23 -101 23c-32 0 -66 -16 -102 -49z" />
    <glyph glyph-name="exclamdown" unicode="&#xa1;" horiz-adv-x="274" 
d="M44 38c0 24 14 89 42 194s42 180 42 225c0 34 -4 56 -12 67c15 3 25 4 31 4c28 0 38 -16 38 -61c0 -17 -3 -60 -9 -131c-7 -71 -10 -126 -10 -166c0 -45 3 -87 9 -125c6 -39 14 -64 23 -77v-5c-23 -6 -44 -9 -61 -9c-62 0 -93 28 -93 84zM199 616c-23 -23 -59 -23 -82 0
s-23 59 0 82s59 23 82 0s23 -59 0 -82z" />
    <glyph glyph-name="cent" unicode="&#xa2;" horiz-adv-x="483" 
d="M218 -51c0 -2 5 45 7 87c-54 7 -99 33 -134 78s-53 99 -53 164c0 70 21 132 63 186s96 86 161 97c3 49 4 80 4 91v13c9 2 20 3 31 3c13 0 20 -7 20 -21c0 -3 -5 -63 -7 -82c31 -1 62 -8 95 -20c32 -13 48 -30 48 -53s-12 -47 -37 -70h-8c-5 12 -10 28 -45 62
c-18 17 -37 27 -57 32l-28 -407c53 0 112 29 137 53l19 17l7 -4c-1 -7 -3 -14 -20 -44c-9 -15 -19 -29 -30 -41c-23 -24 -67 -49 -118 -54c-3 -29 -4 -57 -4 -84c0 -10 0 -17 1 -21c-10 -2 -20 -3 -31 -3c-14 0 -21 7 -21 21zM231 122l27 392c-78 -21 -116 -135 -114 -215
c0 -83 32 -150 87 -177z" />
    <glyph glyph-name="sterling" unicode="&#xa3;" horiz-adv-x="511" 
d="M36 27c1 3 10 17 28 40c21 27 36 68 47 122l4 20c3 13 10 48 11 57c-16 0 -39 -1 -70 -2c-1 4 -1 12 -1 24c0 25 7 37 21 37c16 -1 36 -1 59 -2l12 87c18 133 82 200 191 200c77 0 126 -44 126 -107v-9l-8 -2c-16 34 -49 51 -99 51c-56 0 -91 -41 -104 -124
c-3 -13 -6 -32 -9 -55c-3 -24 -5 -38 -6 -43h99c36 0 61 1 76 4c0 -9 -4 -22 -13 -37c-9 -16 -23 -24 -42 -24c-27 0 -70 1 -129 2c-15 -79 -41 -147 -79 -203l2 -4c26 5 77 8 152 9c7 0 52 0 58 1c8 0 35 1 44 5c15 4 38 16 51 34h8c-3 -79 -29 -118 -94 -118
c-22 0 -57 2 -104 7c-47 6 -79 8 -95 8c-41 0 -88 -5 -108 -9l-15 -2c-9 15 -13 26 -13 33z" />
    <glyph glyph-name="yen" unicode="&#xa5;" horiz-adv-x="539" 
d="M195 39c0 6 4 60 11 163h-23c-59 0 -95 -1 -107 -4c-1 4 -2 10 -2 18c0 29 8 44 24 44c35 -1 72 -3 111 -4l3 31c-4 5 -13 20 -27 44c-55 0 -89 -1 -100 -4c-1 4 -2 10 -2 18c0 29 8 44 24 44c15 -1 31 -2 48 -2c-17 32 -45 86 -60 117c-8 15 -14 26 -17 31
c-12 21 -28 42 -36 50l-6 6v5c18 5 42 8 72 8c64 -5 64 -9 81 -52c32 -82 65 -152 98 -209c32 52 69 113 86 144s39 65 51 81c19 26 36 36 61 36c15 0 34 -3 43 -6l8 -2v-5c-22 -18 -43 -40 -63 -65c-30 -38 -63 -85 -100 -142c47 2 73 4 78 5c1 -5 1 -13 1 -26
c0 -24 -5 -36 -15 -36c-28 1 -61 1 -100 2c-7 -12 -22 -34 -26 -41l-3 -33h11c60 0 101 2 123 5c1 -5 1 -13 1 -26c0 -24 -5 -36 -15 -36c-35 1 -76 2 -123 3c-3 -35 -4 -75 -4 -118c0 -28 1 -56 3 -84c-32 -6 -51 -9 -57 -9c-35 0 -52 16 -52 49z" />
    <glyph glyph-name="brokenbar" unicode="&#xa6;" horiz-adv-x="268" 
d="M133 315c-29 0 -43 9 -43 27c0 21 1 66 3 133c1 67 2 105 2 116c0 54 -2 90 -5 109c50 7 81 8 77 -24c0 -21 -1 -65 -2 -132c-2 -67 -3 -106 -3 -117c0 -54 2 -90 5 -109c-11 -2 -22 -3 -34 -3zM95 107c0 54 -2 90 -5 109c50 7 81 8 77 -24c0 -21 -1 -65 -2 -132
c-2 -68 -3 -106 -3 -117c0 -54 2 -90 5 -109c-11 -2 -22 -3 -34 -3c-29 0 -43 9 -43 27c0 21 1 65 3 132c1 68 2 106 2 117z" />
    <glyph glyph-name="section" unicode="&#xa7;" horiz-adv-x="419" 
d="M28 -104l4 2c33 -35 73 -52 121 -52h8c3 22 4 55 4 100c0 78 -16 193 -49 345c-23 107 -35 186 -35 236c0 67 16 123 47 168s78 67 141 67c32 0 61 -8 87 -25s39 -41 39 -72v-6l-4 -2c-34 35 -74 52 -121 52h-8c-3 -22 -4 -55 -4 -100c0 -78 16 -193 49 -345
c23 -109 35 -190 35 -241c0 -66 -16 -121 -47 -165c-31 -43 -78 -65 -141 -65c-33 0 -62 8 -87 24c-26 17 -39 41 -39 73v6zM216 -8c0 -51 -6 -97 -18 -139c58 21 87 78 87 171c0 23 -2 42 -7 76c-3 17 -5 31 -7 43c-2 11 -6 32 -11 62l-15 75c-25 134 -38 228 -38 283
c0 53 6 99 17 139c-57 -21 -86 -78 -86 -172c0 -15 1 -31 2 -43c1 -13 6 -39 8 -51c2 -13 8 -51 12 -67c2 -14 15 -74 18 -94c25 -129 38 -224 38 -283z" />
    <glyph glyph-name="dieresis" unicode="&#xa8;" horiz-adv-x="400" 
d="M145 628c-24 -24 -60 -24 -83 0c-24 23 -24 59 0 83c23 23 59 23 83 0c23 -24 23 -60 0 -83zM295 610c-31 0 -58 27 -58 59s27 59 58 59c33 0 60 -27 60 -59s-27 -59 -60 -59z" />
    <glyph glyph-name="copyright" unicode="&#xa9;" horiz-adv-x="840" 
d="M242 338c0 56 19 104 58 144c38 40 85 60 142 60c25 0 49 -5 74 -16s37 -24 37 -41c0 -21 -12 -41 -35 -59l-5 3c-7 43 -47 64 -78 64c-32 0 -58 -13 -78 -40s-30 -57 -30 -88c0 -91 56 -140 125 -140c50 0 89 18 117 53l5 -3c-19 -75 -82 -114 -154 -114
c-47 0 -89 16 -124 48c-36 31 -54 74 -54 129zM130 346c0 -87 28 -159 85 -217c56 -58 126 -87 209 -87c80 0 148 30 205 89s85 132 85 221c0 87 -28 159 -84 217s-125 87 -208 87c-81 0 -149 -29 -206 -88s-86 -133 -86 -222zM52 333c0 113 36 205 108 276
c72 70 167 105 284 105c101 0 185 -33 250 -99c65 -67 98 -150 98 -250c0 -113 -36 -205 -108 -275c-72 -71 -167 -106 -284 -106c-101 0 -185 33 -250 100c-65 66 -98 149 -98 249z" />
    <glyph glyph-name="ordfeminine" unicode="&#xaa;" horiz-adv-x="427" 
d="M148 372c-55 0 -89 47 -89 119c0 61 18 113 55 156c37 42 83 63 138 63c7 0 22 -1 45 -3c23 -3 43 -4 61 -5l2 -2c-5 -23 -12 -67 -20 -133c-8 -67 -12 -106 -12 -118c0 -17 6 -26 18 -26c17 0 37 19 46 35l7 11l8 -4c0 -2 -4 -31 -27 -59c-13 -16 -41 -32 -76 -32
s-52 18 -52 55c0 7 1 16 3 26h-3c-30 -55 -65 -83 -104 -83zM168 424c17 0 37 16 59 49c22 32 34 58 36 78l12 97c-2 19 -13 29 -33 29c-33 0 -59 -19 -77 -57c-18 -39 -27 -80 -27 -125c0 -40 11 -71 30 -71z" />
    <glyph glyph-name="guillemotleft" unicode="&#xab;" horiz-adv-x="563" 
d="M43 265l1 12c35 12 81 32 154 85c36 26 64 53 85 82h5c2 -8 3 -17 3 -27c0 -24 -13 -52 -38 -85c-26 -33 -53 -56 -81 -70l-1 -5c25 -13 48 -34 71 -65s34 -59 34 -83c0 -12 -3 -24 -6 -31l-1 -4h-5c-32 59 -93 104 -137 123c-45 19 -84 43 -84 68zM266 257l2 27
c101 43 174 97 219 160h6c1 -7 2 -16 2 -26c0 -24 -13 -52 -38 -85s-52 -57 -81 -71l-1 -5c25 -12 48 -34 71 -65s34 -59 34 -83c0 -12 -4 -24 -5 -31l-1 -4h-6c-28 56 -85 101 -125 119c-41 18 -77 40 -77 64z" />
    <glyph glyph-name="logicalnot" unicode="&#xac;" horiz-adv-x="827" 
d="M192 243v8c16 4 37 14 64 30c27 13 50 30 69 49c-29 17 -55 41 -77 70c-23 29 -34 58 -34 87v3l6 4c7 -7 26 -21 57 -42c30 -17 56 -28 78 -35c1 35 8 69 23 104c14 35 34 59 61 73l4 -3c-3 -19 -5 -42 -5 -70c0 -25 2 -53 6 -84c55 23 98 35 127 35c25 0 49 -7 70 -20
v-5c-25 -9 -46 -19 -63 -30c-25 -13 -48 -30 -69 -51c60 -40 111 -98 111 -158v-2l-7 -2c-19 18 -38 31 -57 39c-23 13 -48 25 -76 35c-4 -75 -33 -149 -85 -177l-5 5c4 17 6 41 6 71c0 34 -2 61 -7 80c-41 -21 -84 -31 -127 -31c-26 0 -49 6 -70 17zM498 184v5l5 1
c34 -30 83 -52 115 -62c20 -7 49 -14 52 -15c1 -5 2 -10 2 -15c0 -21 -8 -39 -24 -54h-4c-29 0 -62 17 -98 50c-32 33 -48 63 -48 90zM514 502l-4 3c3 15 5 33 5 54c0 49 -8 92 -23 129c14 13 31 19 51 19c9 0 17 -1 22 -2c9 -17 14 -36 14 -57c0 -19 -3 -38 -9 -57
c-12 -47 -31 -77 -56 -89zM334 511l-6 -1c-32 30 -83 52 -114 62c-20 7 -49 14 -52 15c-2 8 -3 13 -3 16c0 21 8 38 25 53h3c30 0 62 -17 97 -50c33 -33 50 -63 50 -90v-5zM252 51c0 19 3 39 9 58c12 47 31 77 56 89l3 -3c-3 -19 -5 -37 -5 -54c0 -27 5 -61 10 -80
c4 -19 12 -46 13 -49c-12 -13 -29 -20 -51 -20c-7 0 -15 1 -22 3c-9 14 -13 33 -13 56zM83 248c-11 4 -21 10 -30 19c-12 14 -18 26 -18 35v1c13 26 45 46 94 61c17 5 35 8 56 8c22 0 38 -4 49 -12l-1 -6c-42 -14 -87 -46 -111 -68c-15 -13 -38 -37 -39 -38zM597 341l1 5
c42 14 80 41 108 66c18 16 36 35 42 41c13 -5 23 -12 31 -20c11 -13 16 -25 17 -36c-11 -21 -32 -37 -62 -50c-31 -13 -60 -19 -89 -19c-21 0 -37 4 -48 13z" />
    <glyph glyph-name="registered" unicode="&#xae;" horiz-adv-x="586" 
d="M281 293c-67 0 -121 22 -164 66c-43 43 -65 97 -65 162c0 74 24 134 72 180c47 46 110 69 187 69c65 0 119 -22 161 -65s63 -98 63 -163c0 -73 -23 -133 -69 -179c-47 -47 -108 -70 -185 -70zM299 333c51 0 95 19 132 58c37 38 55 86 55 143c0 58 -18 105 -53 142
s-81 55 -137 55c-53 0 -99 -19 -136 -57s-56 -86 -56 -145c0 -56 19 -103 56 -140s83 -56 139 -56zM198 408c5 8 7 43 7 105c0 47 -1 86 -2 118l-5 42c13 -1 25 -1 35 -1h47c63 0 97 -29 97 -69c0 -33 -22 -68 -51 -69l-1 -3c7 -3 15 -12 25 -29c40 -65 54 -82 70 -87v-5
c-12 -4 -26 -6 -41 -6c-65 0 -53 97 -122 124v-15c0 -13 2 -57 2 -82c0 -18 -10 -27 -29 -27c-8 0 -24 4 -32 4zM257 549c9 -2 18 -3 27 -3c31 0 46 16 46 49c0 35 -22 53 -65 53h-7c-1 -21 -1 -54 -1 -99z" />
    <glyph glyph-name="overscore" unicode="&#xaf;" horiz-adv-x="400" 
d="M36 613c-1 7 -1 14 -1 23c0 36 9 54 26 54c63 -3 127 -5 192 -5c54 0 90 2 109 5c1 -7 2 -17 2 -28c0 -33 -6 -49 -17 -49c-63 3 -128 4 -195 4c-59 0 -97 -1 -116 -4z" />
    <glyph glyph-name="degree" unicode="&#xb0;" horiz-adv-x="379" 
d="M208 400c-41 0 -76 15 -106 45c-31 29 -46 64 -46 105s15 76 46 106c30 29 65 44 106 44s78 -15 109 -44c31 -30 46 -65 46 -106s-15 -76 -46 -105c-31 -30 -68 -45 -109 -45zM209 455c55 0 91 48 91 97c0 48 -44 90 -91 90c-49 0 -90 -41 -90 -90c0 -24 9 -46 27 -66
c17 -21 38 -31 63 -31z" />
    <glyph glyph-name="plusminus" unicode="&#xb1;" horiz-adv-x="468" 
d="M181 139c1 38 3 79 4 122h-25c-59 0 -97 -1 -116 -4c-2 11 -3 22 -3 34c0 29 8 43 23 43c38 -2 79 -3 122 -4v31c0 54 -2 90 -5 109c13 3 28 4 45 4c21 0 32 -5 32 -14c-2 -41 -3 -85 -4 -131h32c54 0 90 2 109 5c3 -13 4 -28 4 -45c0 -21 -5 -32 -14 -32
c-41 1 -85 2 -131 3v-25c0 -59 1 -97 4 -116c-11 -2 -22 -3 -34 -3c-29 0 -43 8 -43 23zM61 -10c83 -3 157 -5 222 -5c54 0 90 2 109 5c3 -13 4 -28 4 -45c0 -21 -5 -32 -14 -32c-83 3 -158 4 -225 4c-59 0 -97 -1 -116 -4c-2 11 -3 22 -3 34c0 29 8 43 23 43z" />
    <glyph glyph-name="twosuperior" unicode="&#xb2;" horiz-adv-x="325" 
d="M59 442l-4 3c18 90 156 118 156 213c0 33 -13 50 -40 50c-29 0 -60 -20 -73 -36l-9 -12l-3 5c7 56 54 92 103 92c60 0 91 -36 91 -83c0 -43 -29 -85 -56 -106c-13 -11 -31 -23 -53 -38c-23 -15 -38 -26 -46 -33l3 -4c19 6 59 9 118 9c45 0 48 -7 49 -54v-8
c-39 3 -78 5 -117 5h-50c-28 0 -51 -1 -69 -3z" />
    <glyph glyph-name="threesuperior" unicode="&#xb3;" horiz-adv-x="291" 
d="M155 440c-44 0 -87 26 -98 71l7 5c19 -19 42 -28 71 -28c83 0 84 97 -1 102c-10 0 -15 4 -15 12l3 18l35 6c24 4 46 25 46 45c0 25 -16 37 -47 37c-28 0 -58 -20 -70 -36l-9 -12l-4 5c7 59 56 92 109 92c51 0 87 -25 87 -68c0 -32 -19 -57 -56 -74l-1 -5
c35 -11 55 -40 55 -69c0 -64 -43 -101 -112 -101z" />
    <glyph glyph-name="acute" unicode="&#xb4;" horiz-adv-x="400" 
d="M86 575v5c57 31 107 87 150 169c32 0 58 -20 66 -36l7 -12c-10 -32 -37 -62 -80 -89s-81 -41 -113 -41c-15 0 -25 1 -30 4z" />
    <glyph glyph-name="mu" unicode="&#xb5;" horiz-adv-x="858" 
d="M61 343c0 104 35 192 105 264c70 71 159 107 267 107c104 0 191 -35 262 -104c71 -70 106 -155 106 -255c0 -104 -35 -192 -105 -263c-70 -72 -159 -108 -267 -108c-104 0 -191 35 -262 105c-71 69 -106 154 -106 254zM162 194c104 3 200 109 230 104c7 0 13 -1 16 -4
l7 -6c-5 -27 -8 -59 -8 -97c0 -59 8 -110 25 -151c15 35 23 73 23 116c0 15 -1 33 -3 56c-2 22 -3 37 -3 45c0 23 6 37 17 43l10 5c20 -19 52 -40 95 -65s86 -40 128 -45c-33 48 -92 86 -132 102c-41 16 -76 36 -76 59l1 10c25 8 60 25 103 50s78 54 105 87
c-53 -3 -111 -30 -143 -54c-33 -25 -68 -50 -87 -50c-5 0 -10 2 -15 5l-8 5c5 30 8 63 8 98c0 59 -8 109 -24 152c-17 -34 -25 -73 -25 -117c0 -15 1 -33 4 -56c2 -23 3 -39 3 -46c0 -22 -6 -36 -17 -43l-9 -3c-81 65 -156 101 -225 109c33 -48 93 -86 134 -102
c40 -16 75 -36 75 -60l-1 -8c-27 -9 -61 -26 -104 -51s-78 -55 -104 -88zM519 516v-10l3 -3c33 23 73 34 119 34c19 0 35 -3 46 -10c-51 76 -133 125 -229 133c17 -11 31 -32 43 -61s18 -57 18 -83zM175 169c51 -75 133 -123 229 -131c-17 10 -31 30 -43 59s-18 57 -18 84
c0 1 1 8 1 11l-4 3c-30 -23 -70 -34 -119 -34c-17 0 -32 3 -46 8zM457 38c92 7 175 54 227 129c-12 -4 -26 -6 -42 -6c-47 0 -86 11 -118 34l-5 -2v-12c0 -25 -6 -53 -18 -83c-13 -31 -27 -51 -44 -60zM177 529c13 5 27 8 44 8c44 0 83 -11 118 -34l4 2c-1 5 -1 8 -1 10
c0 25 6 53 19 83s27 51 43 62c-92 -8 -175 -56 -227 -131zM148 218c1 21 12 44 35 71s45 45 68 56v6c-22 10 -44 28 -66 55s-34 50 -37 71c-17 -40 -26 -84 -26 -131c0 -45 9 -88 26 -128zM611 352v-6c22 -9 44 -27 66 -54s34 -50 36 -71c18 41 27 85 27 131
c0 43 -9 86 -26 127c-1 -20 -13 -43 -35 -70c-23 -27 -45 -46 -68 -57z" />
    <glyph glyph-name="mu" unicode="&#x3bc;" horiz-adv-x="858" 
d="M61 343c0 104 35 192 105 264c70 71 159 107 267 107c104 0 191 -35 262 -104c71 -70 106 -155 106 -255c0 -104 -35 -192 -105 -263c-70 -72 -159 -108 -267 -108c-104 0 -191 35 -262 105c-71 69 -106 154 -106 254zM162 194c104 3 200 109 230 104c7 0 13 -1 16 -4
l7 -6c-5 -27 -8 -59 -8 -97c0 -59 8 -110 25 -151c15 35 23 73 23 116c0 15 -1 33 -3 56c-2 22 -3 37 -3 45c0 23 6 37 17 43l10 5c20 -19 52 -40 95 -65s86 -40 128 -45c-33 48 -92 86 -132 102c-41 16 -76 36 -76 59l1 10c25 8 60 25 103 50s78 54 105 87
c-53 -3 -111 -30 -143 -54c-33 -25 -68 -50 -87 -50c-5 0 -10 2 -15 5l-8 5c5 30 8 63 8 98c0 59 -8 109 -24 152c-17 -34 -25 -73 -25 -117c0 -15 1 -33 4 -56c2 -23 3 -39 3 -46c0 -22 -6 -36 -17 -43l-9 -3c-81 65 -156 101 -225 109c33 -48 93 -86 134 -102
c40 -16 75 -36 75 -60l-1 -8c-27 -9 -61 -26 -104 -51s-78 -55 -104 -88zM519 516v-10l3 -3c33 23 73 34 119 34c19 0 35 -3 46 -10c-51 76 -133 125 -229 133c17 -11 31 -32 43 -61s18 -57 18 -83zM175 169c51 -75 133 -123 229 -131c-17 10 -31 30 -43 59s-18 57 -18 84
c0 1 1 8 1 11l-4 3c-30 -23 -70 -34 -119 -34c-17 0 -32 3 -46 8zM457 38c92 7 175 54 227 129c-12 -4 -26 -6 -42 -6c-47 0 -86 11 -118 34l-5 -2v-12c0 -25 -6 -53 -18 -83c-13 -31 -27 -51 -44 -60zM177 529c13 5 27 8 44 8c44 0 83 -11 118 -34l4 2c-1 5 -1 8 -1 10
c0 25 6 53 19 83s27 51 43 62c-92 -8 -175 -56 -227 -131zM148 218c1 21 12 44 35 71s45 45 68 56v6c-22 10 -44 28 -66 55s-34 50 -37 71c-17 -40 -26 -84 -26 -131c0 -45 9 -88 26 -128zM611 352v-6c22 -9 44 -27 66 -54s34 -50 36 -71c18 41 27 85 27 131
c0 43 -9 86 -26 127c-1 -20 -13 -43 -35 -70c-23 -27 -45 -46 -68 -57z" />
    <glyph glyph-name="paragraph" unicode="&#xb6;" horiz-adv-x="609" 
d="M307 145l-2 4c-81 0 -147 27 -199 82c-53 54 -79 121 -79 201c0 73 27 136 82 189c54 53 117 79 189 79h176c66 0 103 3 110 8c-5 -24 -11 -40 -19 -48c-8 -9 -26 -14 -53 -17c-29 -423 -44 -705 -44 -845h-59c27 468 42 749 43 842h-60c-7 -82 -16 -223 -27 -422
c-11 -200 -17 -340 -17 -420h-61c13 223 19 339 20 347z" />
    <glyph glyph-name="middot" unicode="&#xb7;" horiz-adv-x="251" 
d="M122 215c-36 0 -67 31 -67 67c0 37 31 68 67 68c37 0 68 -31 68 -68c0 -36 -31 -67 -68 -67z" />
    <glyph glyph-name="cedilla" unicode="&#xb8;" horiz-adv-x="400" 
d="M160 -103c-28 13 -2 65 24 91l12 12c5 3 10 4 15 4c8 0 13 -1 16 -4l-6 -8c-8 -11 -19 -30 -19 -41c0 -30 91 -5 91 -80c0 -57 -46 -102 -115 -102c-49 0 -79 19 -79 48c0 9 2 17 5 25l5 2c9 -15 30 -23 65 -23c33 0 51 20 51 35c0 30 -43 26 -65 41z" />
    <glyph glyph-name="onesuperior" unicode="&#xb9;" horiz-adv-x="263" 
d="M237 445h-185c-1 4 -1 7 -1 10c0 13 8 17 29 21c11 2 18 4 22 5l11 3c11 102 17 165 17 189c0 37 -8 45 -43 48c-9 1 -14 3 -15 7c-1 1 -1 3 -1 5l3 19h164c14 0 21 -5 21 -15l-1 -17c-29 0 -48 -4 -55 -12c-8 -8 -13 -29 -16 -63c-7 -67 -10 -120 -10 -160l11 -3
c23 -5 51 -8 51 -23z" />
    <glyph glyph-name="ordmasculine" unicode="&#xba;" horiz-adv-x="397" 
d="M206 406c28 0 51 16 68 49s25 69 25 110c0 64 -23 111 -71 111c-29 0 -52 -16 -67 -48c-15 -33 -23 -69 -23 -110c0 -65 23 -112 68 -112zM206 372c-92 0 -149 65 -149 154c0 49 16 92 47 129s72 55 124 55c93 0 152 -65 152 -152c0 -49 -16 -92 -48 -129
c-32 -38 -74 -57 -126 -57z" />
    <glyph glyph-name="guillemotright" unicode="&#xbb;" horiz-adv-x="563" 
d="M272 74h-5c-2 7 -3 16 -3 27c0 24 13 53 39 86c25 33 52 57 80 70l1 5c-25 13 -48 34 -71 65s-34 58 -34 81c0 11 2 24 5 31l2 5h5c17 -28 43 -55 77 -82s62 -46 85 -57c23 -12 42 -21 59 -28c1 -4 1 -7 1 -10c-1 -27 -42 -50 -89 -69s-113 -64 -152 -124zM68 74h-6
c-1 7 -2 15 -2 25c0 25 13 54 38 88c25 33 52 57 81 70l1 5c-25 12 -48 34 -71 65s-34 58 -34 81l6 36h6c16 -27 40 -54 72 -79c31 -25 57 -43 77 -54c19 -11 37 -20 54 -27v-25c-1 -25 -39 -47 -82 -65c-44 -18 -105 -63 -140 -120z" />
    <glyph glyph-name="onequarter" unicode="&#xbc;" horiz-adv-x="448" 
d="M66 102l-2 6l148 199c14 5 25 7 33 7c21 0 38 -13 38 -36c0 -3 -4 -50 -11 -142c23 0 41 2 54 5l-1 -24c-6 -37 -21 -38 -57 -38v-7c-3 -36 -6 -58 -9 -66c-3 -9 -12 -13 -27 -13c-9 0 -35 3 -42 3c6 16 11 45 14 86h-106c-16 0 -28 11 -32 20zM132 139l3 -4
c14 1 38 2 73 2c3 45 6 82 10 111l-5 2zM54 349c-1 5 -1 10 -1 17c0 30 9 45 26 45c41 -3 86 -5 133 -5c113 0 179 2 198 5c1 -7 2 -14 2 -23c0 -26 -6 -39 -17 -39c-53 3 -129 4 -230 4c-56 0 -93 -1 -111 -4zM331 450h-185c-1 4 -1 7 -1 10c0 13 8 17 29 21
c11 2 18 4 22 5l11 3c11 102 17 165 17 189c0 37 -8 45 -43 48c-9 1 -14 3 -15 7c-1 1 -1 3 -1 5l3 19h164c14 0 21 -5 21 -15l-1 -17c-29 0 -48 -4 -55 -12c-8 -8 -13 -29 -16 -63c-7 -67 -10 -120 -10 -160l11 -3c23 -5 51 -8 51 -23z" />
    <glyph glyph-name="onehalf" unicode="&#xbd;" horiz-adv-x="450" 
d="M321 450h-185c-1 4 -1 7 -1 10c0 13 8 17 29 21c11 2 18 4 22 5l11 3c11 102 17 165 17 189c0 37 -8 45 -43 48c-9 1 -14 3 -15 7c-1 1 -1 3 -1 5l3 19h164c14 0 21 -5 21 -15l-1 -17c-29 0 -48 -4 -55 -12c-8 -8 -13 -29 -16 -63c-7 -67 -10 -120 -10 -160l11 -3
c23 -5 51 -8 51 -23zM89 -3l-4 3c18 90 156 118 156 213c0 33 -13 50 -40 50c-29 0 -60 -20 -73 -36l-9 -12l-3 5c7 56 54 92 103 92c60 0 91 -36 91 -83c0 -43 -29 -85 -56 -106c-13 -11 -31 -23 -53 -38c-23 -15 -38 -26 -46 -33l3 -4c19 6 59 9 118 9c24 0 38 -3 43 -10
c4 -7 6 -25 6 -52c-39 3 -78 5 -117 5h-50c-28 0 -51 -1 -69 -3zM53 349c-1 5 -1 10 -1 17c0 30 9 45 26 45c41 -3 86 -5 133 -5c113 0 179 2 198 5c1 -7 2 -14 2 -23c0 -26 -6 -39 -17 -39c-53 3 -129 4 -230 4c-56 0 -93 -1 -111 -4z" />
    <glyph glyph-name="threequarters" unicode="&#xbe;" horiz-adv-x="448" 
d="M47 346c-1 7 -1 14 -1 23c0 26 8 39 25 39c42 -3 87 -5 134 -5c113 0 178 2 197 5c1 -7 2 -14 2 -23c0 -26 -5 -39 -16 -39c-41 3 -85 4 -133 4c-117 0 -187 -1 -208 -4zM62 102l-2 6l148 199c14 5 25 7 33 7c21 0 38 -13 38 -36c0 -3 -4 -50 -11 -142c23 0 41 2 54 5
l-1 -24c-6 -37 -21 -38 -57 -38v-7c-3 -36 -6 -58 -9 -66c-3 -9 -12 -13 -27 -13c-9 0 -30 3 -42 3c6 16 11 45 14 86h-106c-16 0 -28 11 -32 20zM128 139l3 -4c14 1 38 2 73 2c3 45 6 82 10 111l-5 2zM233 440c-44 0 -87 26 -98 71l7 5c19 -19 42 -28 71 -28
c83 0 84 97 -1 102c-10 0 -15 4 -15 12l3 18l35 6c24 4 46 25 46 45c0 25 -16 37 -47 37c-28 0 -58 -20 -70 -36l-9 -12l-4 5c7 59 56 92 109 92c51 0 87 -25 87 -68c0 -32 -19 -57 -56 -74l-1 -5c35 -11 55 -40 55 -69c0 -64 -43 -101 -112 -101z" />
    <glyph glyph-name="questiondown" unicode="&#xbf;" horiz-adv-x="371" 
d="M21 162c0 77 79 133 141 181c43 33 77 79 77 127c0 23 -4 41 -12 54c12 3 22 4 30 4c26 0 39 -18 39 -55c0 -138 -168 -196 -168 -275c0 -76 166 -45 166 -165c0 -35 -13 -67 -22 -79l-8 -10h-8c1 2 1 5 1 9c0 21 -27 41 -81 59c-14 5 -25 8 -32 11c-8 3 -21 9 -38 18
c-18 9 -32 19 -42 29c-21 19 -43 53 -43 92zM310 616c-23 -23 -59 -23 -82 0s-23 59 0 82s59 23 82 0s23 -59 0 -82z" />
    <glyph glyph-name="Agrave" unicode="&#xc0;" horiz-adv-x="632" 
d="M-5 -2l-5 2v5c18 13 41 55 70 125l238 583c1 0 33 -1 69 -27c20 -16 44 -50 53 -94c16 -75 38 -166 65 -271c27 -106 50 -184 68 -235c17 -49 30 -76 37 -81v-5c-24 -7 -47 -10 -69 -10c-49 0 -77 20 -84 60c-12 59 -26 120 -41 183c-39 1 -70 2 -95 2
c-38 0 -84 -1 -137 -4c-16 -44 -37 -101 -45 -128c-9 -27 -23 -61 -32 -76c-16 -25 -33 -37 -65 -37c-9 0 -22 4 -27 8zM184 286c40 -1 74 -2 101 -2c24 0 57 1 98 2c-32 131 -59 232 -80 301h-4c-28 -68 -66 -168 -115 -301zM402 744c-31 0 -67 14 -106 41
c-40 27 -63 57 -69 89c4 7 8 17 36 35c14 9 29 13 45 13c29 -81 71 -138 126 -169v-5c-7 -3 -18 -4 -32 -4z" />
    <glyph glyph-name="Aacute" unicode="&#xc1;" horiz-adv-x="632" 
d="M-5 -2l-5 2v5c18 13 41 55 70 125l238 583c1 0 33 -1 69 -27c20 -16 44 -50 53 -94c16 -75 38 -166 65 -271c27 -106 50 -184 68 -235c17 -49 30 -76 37 -81v-5c-24 -7 -47 -10 -69 -10c-49 0 -77 20 -84 60c-12 59 -26 120 -41 183c-39 1 -70 2 -95 2
c-38 0 -84 -1 -137 -4c-16 -44 -37 -101 -45 -128c-9 -27 -23 -61 -32 -76c-16 -25 -33 -37 -65 -37c-9 0 -22 4 -27 8zM184 286c40 -1 74 -2 101 -2c24 0 57 1 98 2c-32 131 -59 232 -80 301h-4c-28 -68 -66 -168 -115 -301zM219 748v5c57 31 107 87 150 169
c42 0 65 -31 70 -43l3 -5c-10 -32 -37 -62 -80 -89s-81 -41 -113 -41c-15 0 -25 1 -30 4z" />
    <glyph glyph-name="Acircumflex" unicode="&#xc2;" horiz-adv-x="632" 
d="M-5 -2l-5 2v5c18 13 41 55 70 125l238 583c1 0 33 -1 69 -27c20 -16 44 -50 53 -94c16 -75 38 -166 65 -271c27 -106 50 -184 68 -235c17 -49 30 -76 37 -81v-5c-24 -7 -47 -10 -69 -10c-49 0 -77 20 -84 60c-12 59 -26 120 -41 183c-39 1 -70 2 -95 2
c-38 0 -84 -1 -137 -4c-16 -44 -37 -101 -45 -128c-9 -27 -23 -61 -32 -76c-16 -25 -33 -37 -65 -37c-9 0 -22 4 -27 8zM184 286c40 -1 74 -2 101 -2c24 0 57 1 98 2c-32 131 -59 232 -80 301h-4c-28 -68 -66 -168 -115 -301zM182 744c-15 0 -25 1 -31 4v8
c28 15 55 36 80 61s43 45 54 62c11 16 20 30 27 43c8 2 15 3 22 3c32 0 54 -29 67 -62s48 -80 100 -107v-8c-6 -3 -16 -4 -31 -4c-22 0 -47 10 -76 29s-49 39 -60 58h-5c-13 -19 -36 -39 -67 -58s-58 -29 -80 -29z" />
    <glyph glyph-name="Atilde" unicode="&#xc3;" horiz-adv-x="632" 
d="M-5 -2l-5 2v5c18 13 41 55 70 125l238 583c1 0 33 -1 69 -27c20 -16 44 -50 53 -94c16 -75 38 -166 65 -271c27 -106 50 -184 68 -235c17 -49 30 -76 37 -81v-5c-24 -7 -47 -10 -69 -10c-49 0 -77 20 -84 60c-12 59 -26 120 -41 183c-39 1 -70 2 -95 2
c-38 0 -84 -1 -137 -4c-16 -44 -37 -101 -45 -128c-9 -27 -23 -61 -32 -76c-16 -25 -33 -37 -65 -37c-9 0 -22 4 -27 8zM184 286c40 -1 74 -2 101 -2c24 0 57 1 98 2c-32 131 -59 232 -80 301h-4c-28 -68 -66 -168 -115 -301zM156 787l-5 7c15 58 56 87 124 87
c25 0 54 -8 89 -23c35 -16 61 -24 78 -24c23 0 46 11 69 33l5 -7c-15 -58 -56 -87 -124 -87c-25 0 -55 8 -90 24c-35 15 -60 23 -77 23c-23 0 -46 -11 -69 -33z" />
    <glyph glyph-name="Adieresis" unicode="&#xc4;" horiz-adv-x="632" 
d="M-5 -2l-5 2v5c18 13 41 55 70 125l238 583c1 0 33 -1 69 -27c20 -16 44 -50 53 -94c16 -75 38 -166 65 -271c27 -106 50 -184 68 -235c17 -49 30 -76 37 -81v-5c-24 -7 -47 -10 -69 -10c-49 0 -77 20 -84 60c-12 59 -26 120 -41 183c-39 1 -70 2 -95 2
c-38 0 -84 -1 -137 -4c-16 -44 -37 -101 -45 -128c-9 -27 -23 -61 -32 -76c-16 -25 -33 -37 -65 -37c-9 0 -22 4 -27 8zM184 286c40 -1 74 -2 101 -2c24 0 57 1 98 2c-32 131 -59 232 -80 301h-4c-28 -68 -66 -168 -115 -301zM280 801c-24 -24 -60 -24 -83 0
c-24 23 -24 59 0 83c23 23 59 23 83 0c23 -24 23 -60 0 -83zM430 783c-31 0 -58 27 -58 59s27 59 58 59c33 0 60 -27 60 -59s-27 -59 -60 -59z" />
    <glyph glyph-name="Aring" unicode="&#xc5;" horiz-adv-x="632" 
d="M-5 -2l-5 2v5c18 13 41 55 70 125l238 583c1 0 33 -1 69 -27c20 -16 44 -50 53 -94c16 -75 38 -166 65 -271c27 -106 50 -184 68 -235c17 -49 30 -76 37 -81v-5c-24 -7 -47 -10 -69 -10c-49 0 -77 20 -84 60c-12 59 -26 120 -41 183c-39 1 -70 2 -95 2
c-38 0 -84 -1 -137 -4c-16 -44 -37 -101 -45 -128c-9 -27 -23 -61 -32 -76c-16 -25 -33 -37 -65 -37c-9 0 -22 4 -27 8zM184 286c40 -1 74 -2 101 -2c24 0 57 1 98 2c-32 131 -59 232 -80 301h-4c-28 -68 -66 -168 -115 -301zM397 773c-37 -35 -91 -35 -126 0
c-36 35 -36 89 0 124c35 35 89 35 126 0c36 -35 36 -89 0 -124zM334 779c32 0 53 28 53 57c0 28 -25 53 -53 53c-29 0 -53 -24 -53 -53c0 -28 24 -57 53 -57z" />
    <glyph glyph-name="AE" unicode="&#xc6;" horiz-adv-x="826" 
d="M-8 -2l-3 2c20 14 45 57 57 79c3 6 9 18 18 35c8 17 13 27 15 30l274 564c37 -5 70 -8 99 -8h111c85 0 162 4 189 8l21 2c-5 -32 -7 -40 -18 -59s-30 -24 -63 -24c-67 0 -133 7 -160 12l-20 4c-1 -10 -3 -44 -6 -102c-4 -59 -7 -107 -9 -144h146c23 0 44 4 51 7l6 3
c-4 -53 -15 -74 -60 -74l-147 6l-6 -104c-1 -18 -2 -46 -2 -83c-1 -37 -1 -66 -2 -86l174 5c61 2 103 9 128 22c0 -44 -5 -71 -16 -82c-11 -12 -37 -17 -78 -16l-335 5c7 18 15 96 22 234h-12c-72 0 -130 -1 -175 -3c-51 -115 -81 -180 -90 -196c-15 -25 -33 -40 -53 -43
c-7 -1 -15 -2 -24 -2c-15 0 -28 4 -32 8zM214 286c20 -1 57 -1 111 -1h56c7 149 10 252 10 310v51l-6 2c-11 -25 -39 -83 -84 -176s-74 -155 -87 -186z" />
    <glyph glyph-name="Ccedilla" unicode="&#xc7;" horiz-adv-x="667" 
d="M235 -158l5 2c9 -15 30 -23 65 -23c33 0 51 20 51 35c0 39 -77 20 -77 65c0 17 12 40 37 68c-81 11 -144 48 -189 110s-68 135 -68 218c0 136 58 263 170 340c56 39 119 58 190 58c59 0 122 -8 175 -40c27 -16 40 -36 40 -60c0 -27 -17 -59 -42 -74h-8
c-47 77 -106 116 -179 116c-60 0 -113 -28 -158 -84c-46 -57 -69 -133 -69 -230c0 -79 19 -143 57 -194s95 -76 171 -76c104 0 174 55 192 79l8 9l7 -4c-3 -9 -4 -20 -28 -59c-13 -20 -27 -38 -43 -53c-33 -31 -99 -60 -174 -60l-20 1c-10 -16 -15 -28 -15 -35
c0 -30 91 -5 91 -80c0 -57 -46 -102 -115 -102c-49 0 -79 19 -79 48c0 9 2 17 5 25z" />
    <glyph glyph-name="Egrave" unicode="&#xc8;" horiz-adv-x="551" 
d="M411 -5l-335 5c9 19 19 111 31 277c11 161 16 279 16 354l-2 69h175c85 0 162 4 190 8l20 2c-5 -32 -7 -40 -18 -59c-12 -19 -32 -24 -65 -24c-67 0 -132 7 -159 12l-19 4c-1 -24 -6 -75 -12 -151c-3 -38 -6 -70 -8 -95h146c23 0 43 4 51 7l5 3c-4 -52 -17 -74 -62 -74
l-145 6c-5 -63 -8 -123 -11 -180c-3 -58 -5 -89 -5 -93l175 5c61 2 104 9 129 22c-1 -44 -7 -71 -18 -82c-12 -11 -38 -16 -79 -16zM399 744c-31 0 -67 14 -106 41c-40 27 -63 57 -69 89c4 7 8 17 36 35c14 9 29 13 45 13c29 -81 71 -138 126 -169v-5c-7 -3 -18 -4 -32 -4z
" />
    <glyph glyph-name="Eacute" unicode="&#xc9;" horiz-adv-x="551" 
d="M411 -5l-335 5c9 19 19 111 31 277c11 161 16 279 16 354l-2 69h175c85 0 162 4 190 8l20 2c-5 -32 -7 -40 -18 -59c-12 -19 -32 -24 -65 -24c-67 0 -132 7 -159 12l-19 4c-1 -24 -6 -75 -12 -151c-3 -38 -6 -70 -8 -95h146c23 0 43 4 51 7l5 3c-4 -52 -17 -74 -62 -74
l-145 6c-5 -63 -8 -123 -11 -180c-3 -58 -5 -89 -5 -93l175 5c61 2 104 9 129 22c-1 -44 -7 -71 -18 -82c-12 -11 -38 -16 -79 -16zM216 748v5c57 31 107 87 150 169c42 0 65 -31 70 -43l3 -5c-10 -32 -37 -62 -80 -89s-81 -41 -113 -41c-15 0 -25 1 -30 4z" />
    <glyph glyph-name="Ecircumflex" unicode="&#xca;" horiz-adv-x="551" 
d="M411 -5l-335 5c9 19 19 111 31 277c11 161 16 279 16 354l-2 69h175c85 0 162 4 190 8l20 2c-5 -32 -7 -40 -18 -59c-12 -19 -32 -24 -65 -24c-67 0 -132 7 -159 12l-19 4c-1 -24 -6 -75 -12 -151c-3 -38 -6 -70 -8 -95h146c23 0 43 4 51 7l5 3c-4 -52 -17 -74 -62 -74
l-145 6c-5 -63 -8 -123 -11 -180c-3 -58 -5 -89 -5 -93l175 5c61 2 104 9 129 22c-1 -44 -7 -71 -18 -82c-12 -11 -38 -16 -79 -16zM179 744c-15 0 -25 1 -31 4v8c28 15 55 36 80 61s43 45 54 62c11 16 20 30 27 43c8 2 15 3 22 3c32 0 54 -29 67 -62s48 -80 100 -107v-8
c-6 -3 -16 -4 -31 -4c-22 0 -47 10 -76 29s-49 39 -60 58h-5c-13 -19 -36 -39 -67 -58s-58 -29 -80 -29z" />
    <glyph glyph-name="Edieresis" unicode="&#xcb;" horiz-adv-x="551" 
d="M411 -5l-335 5c9 19 19 111 31 277c11 161 16 279 16 354l-2 69h175c85 0 162 4 190 8l20 2c-5 -32 -7 -40 -18 -59c-12 -19 -32 -24 -65 -24c-67 0 -132 7 -159 12l-19 4c-1 -24 -6 -75 -12 -151c-3 -38 -6 -70 -8 -95h146c23 0 43 4 51 7l5 3c-4 -52 -17 -74 -62 -74
l-145 6c-5 -63 -8 -123 -11 -180c-3 -58 -5 -89 -5 -93l175 5c61 2 104 9 129 22c-1 -44 -7 -71 -18 -82c-12 -11 -38 -16 -79 -16zM277 801c-24 -24 -60 -24 -83 0c-24 23 -24 59 0 83c23 23 59 23 83 0c23 -24 23 -60 0 -83zM427 783c-31 0 -58 27 -58 59s27 59 58 59
c33 0 60 -27 60 -59s-27 -59 -60 -59z" />
    <glyph glyph-name="Igrave" unicode="&#xcc;" horiz-adv-x="316" 
d="M86 39c0 7 1 20 3 41c1 21 4 59 8 114s8 113 12 174c7 97 10 190 10 279l-1 54c19 6 37 9 54 9c48 0 68 -22 68 -77c0 -27 -5 -81 -12 -153c-4 -37 -7 -65 -9 -85c-10 -110 -15 -209 -15 -298c0 -21 1 -52 2 -95c-39 -7 -59 -10 -62 -10c-33 0 -58 19 -58 47zM255 744
c-31 0 -67 14 -106 41c-40 27 -63 57 -69 89c4 7 8 17 36 35c14 9 29 13 45 13c29 -81 71 -138 126 -169v-5c-7 -3 -18 -4 -32 -4z" />
    <glyph glyph-name="Iacute" unicode="&#xcd;" horiz-adv-x="316" 
d="M86 39c0 7 1 20 3 41c1 21 4 59 8 114s8 113 12 174c7 97 10 190 10 279l-1 54c19 6 37 9 54 9c48 0 68 -22 68 -77c0 -27 -5 -81 -12 -153c-4 -37 -7 -65 -9 -85c-10 -110 -15 -209 -15 -298c0 -21 1 -52 2 -95c-39 -7 -59 -10 -62 -10c-33 0 -58 19 -58 47zM72 748v5
c57 31 107 87 150 169c32 0 58 -20 66 -36l7 -12c-10 -32 -37 -62 -80 -89s-81 -41 -113 -41c-15 0 -25 1 -30 4z" />
    <glyph glyph-name="Icircumflex" unicode="&#xce;" horiz-adv-x="316" 
d="M86 39c0 7 1 20 3 41c1 21 4 59 8 114s8 113 12 174c7 97 10 190 10 279l-1 54c19 6 37 9 54 9c48 0 68 -22 68 -77c0 -27 -5 -81 -12 -153c-4 -37 -7 -65 -9 -85c-10 -110 -15 -209 -15 -298c0 -21 1 -52 2 -95c-39 -7 -59 -10 -62 -10c-33 0 -58 19 -58 47zM35 744
c-15 0 -25 1 -31 4v8c28 15 55 36 80 61s43 45 54 62c11 16 20 30 27 43c8 2 15 3 22 3c32 0 54 -29 67 -62s48 -80 100 -107v-8c-6 -3 -16 -4 -31 -4c-22 0 -47 10 -76 29s-49 39 -60 58h-5c-13 -19 -36 -39 -67 -58s-58 -29 -80 -29z" />
    <glyph glyph-name="Idieresis" unicode="&#xcf;" horiz-adv-x="316" 
d="M86 39c0 7 1 20 3 41c1 21 4 59 8 114s8 113 12 174c7 97 10 190 10 279l-1 54c19 6 37 9 54 9c48 0 68 -22 68 -77c0 -27 -5 -81 -12 -153c-4 -37 -7 -65 -9 -85c-10 -110 -15 -209 -15 -298c0 -21 1 -52 2 -95c-39 -7 -59 -10 -62 -10c-33 0 -58 19 -58 47zM133 801
c-24 -24 -60 -24 -83 0c-24 23 -24 59 0 83c23 23 59 23 83 0c23 -24 23 -60 0 -83zM283 783c-31 0 -58 27 -58 59s27 59 58 59c33 0 60 -27 60 -59s-27 -59 -60 -59z" />
    <glyph glyph-name="Eth" unicode="&#xd0;" horiz-adv-x="764" 
d="M78 0c9 19 20 126 33 319c-45 -1 -74 -3 -87 -4c-1 8 -2 17 -2 26c0 43 7 50 35 50c25 0 45 0 58 -1c7 117 11 199 11 246l-3 64h201c103 0 189 -20 265 -67c76 -48 123 -138 123 -258c0 -108 -33 -199 -99 -273c-67 -74 -147 -111 -241 -111c-23 0 -62 1 -119 4
s-115 5 -175 5zM207 94c0 -35 43 -52 128 -52c75 0 137 31 185 92c47 61 71 136 71 223c0 214 -147 291 -298 290c-21 0 -36 0 -47 -1l-21 -259h62c59 0 97 1 116 4c2 -11 3 -22 3 -34c0 -35 -9 -42 -36 -42c-19 0 -47 1 -84 2c-38 1 -60 1 -66 1c-9 -133 -13 -207 -13 -224
z" />
    <glyph glyph-name="Ntilde" unicode="&#xd1;" horiz-adv-x="728" 
d="M77 -2l-6 3c12 18 24 110 35 276c11 161 16 279 16 354l-2 69c16 5 32 8 49 8c21 0 34 -6 40 -17c9 -18 39 -64 92 -139l168 -242c53 -78 82 -122 86 -133l4 4c1 45 4 121 11 226s10 187 10 245l-2 49c11 6 22 9 35 9c32 0 40 -13 40 -41c0 -19 -7 -113 -22 -282
s-22 -286 -22 -351c0 -13 1 -25 2 -36c-13 -4 -27 -6 -40 -6c-19 0 -33 9 -43 27c-17 32 -49 80 -94 144l-171 245c-51 73 -78 117 -80 131l-4 -4c-3 -49 -8 -127 -13 -233c-5 -107 -10 -188 -14 -245s-8 -68 -39 -68c-12 0 -28 4 -36 7zM216 787l-5 7c15 58 56 87 124 87
c25 0 54 -8 89 -23c35 -16 61 -24 78 -24c23 0 46 11 69 33l5 -7c-15 -58 -56 -87 -124 -87c-25 0 -55 8 -90 24c-35 15 -60 23 -77 23c-23 0 -46 -11 -69 -33z" />
    <glyph glyph-name="Ograve" unicode="&#xd2;" horiz-adv-x="789" 
d="M183 330c0 -150 64 -290 201 -290c138 -2 235 181 231 346c3 141 -65 273 -202 274c-46 0 -87 -17 -123 -50s-63 -75 -80 -124c-18 -50 -27 -102 -27 -156zM60 311c0 139 54 265 167 345c56 39 121 59 195 59c101 0 179 -30 234 -90s82 -134 82 -221
c0 -141 -56 -274 -168 -357c-57 -41 -121 -62 -194 -62c-101 0 -178 31 -233 94s-83 140 -83 232zM496 744c-31 0 -67 14 -106 41c-40 27 -63 57 -69 89c4 7 8 17 36 35c14 9 29 13 45 13c29 -81 71 -138 126 -169v-5c-7 -3 -18 -4 -32 -4z" />
    <glyph glyph-name="Oacute" unicode="&#xd3;" horiz-adv-x="789" 
d="M183 330c0 -150 64 -290 201 -290c138 -2 235 181 231 346c3 141 -65 273 -202 274c-46 0 -87 -17 -123 -50s-63 -75 -80 -124c-18 -50 -27 -102 -27 -156zM60 311c0 139 54 265 167 345c56 39 121 59 195 59c101 0 179 -30 234 -90s82 -134 82 -221
c0 -141 -56 -274 -168 -357c-57 -41 -121 -62 -194 -62c-101 0 -178 31 -233 94s-83 140 -83 232zM313 748v5c57 31 107 87 150 169c43 0 64 -31 71 -43l2 -5c-10 -32 -37 -62 -80 -89s-81 -41 -113 -41c-15 0 -25 1 -30 4z" />
    <glyph glyph-name="Ocircumflex" unicode="&#xd4;" horiz-adv-x="789" 
d="M183 330c0 -150 64 -290 201 -290c138 -2 235 181 231 346c3 141 -65 273 -202 274c-46 0 -87 -17 -123 -50s-63 -75 -80 -124c-18 -50 -27 -102 -27 -156zM60 311c0 139 54 265 167 345c56 39 121 59 195 59c101 0 179 -30 234 -90s82 -134 82 -221
c0 -141 -56 -274 -168 -357c-57 -41 -121 -62 -194 -62c-101 0 -178 31 -233 94s-83 140 -83 232zM276 744c-15 0 -25 1 -31 4v8c28 15 55 36 80 61s43 45 54 62c11 16 20 30 27 43c8 2 15 3 22 3c32 0 54 -29 67 -62s48 -80 100 -107v-8c-6 -3 -16 -4 -31 -4
c-22 0 -47 10 -76 29s-49 39 -60 58h-5c-13 -19 -36 -39 -67 -58s-58 -29 -80 -29z" />
    <glyph glyph-name="Otilde" unicode="&#xd5;" horiz-adv-x="789" 
d="M183 330c0 -150 64 -290 201 -290c138 -2 235 181 231 346c3 141 -65 273 -202 274c-46 0 -87 -17 -123 -50s-63 -75 -80 -124c-18 -50 -27 -102 -27 -156zM60 311c0 139 54 265 167 345c56 39 121 59 195 59c101 0 179 -30 234 -90s82 -134 82 -221
c0 -141 -56 -274 -168 -357c-57 -41 -121 -62 -194 -62c-101 0 -178 31 -233 94s-83 140 -83 232zM250 787l-5 7c15 58 56 87 124 87c25 0 54 -8 89 -23c35 -16 61 -24 78 -24c23 0 46 11 69 33l5 -7c-15 -58 -56 -87 -124 -87c-25 0 -55 8 -90 24c-35 15 -60 23 -77 23
c-23 0 -46 -11 -69 -33z" />
    <glyph glyph-name="Odieresis" unicode="&#xd6;" horiz-adv-x="789" 
d="M183 330c0 -150 64 -290 201 -290c138 -2 235 181 231 346c3 141 -65 273 -202 274c-46 0 -87 -17 -123 -50s-63 -75 -80 -124c-18 -50 -27 -102 -27 -156zM60 311c0 139 54 265 167 345c56 39 121 59 195 59c101 0 179 -30 234 -90s82 -134 82 -221
c0 -141 -56 -274 -168 -357c-57 -41 -121 -62 -194 -62c-101 0 -178 31 -233 94s-83 140 -83 232zM374 801c-24 -24 -60 -24 -83 0c-24 23 -24 59 0 83c23 23 59 23 83 0c23 -24 23 -60 0 -83zM524 783c-31 0 -58 27 -58 59s27 59 58 59c33 0 60 -27 60 -59s-27 -59 -60 -59
z" />
    <glyph glyph-name="multiply" unicode="&#xd7;" horiz-adv-x="468" 
d="M111 124c-29 19 -44 37 -44 53c0 5 11 18 32 38c6 5 17 16 34 31c21 19 38 36 52 49l-22 23c-21 21 -55 53 -103 96c21 31 37 47 48 47s24 -13 68 -61c21 -24 40 -44 55 -60l23 23c48 47 80 82 96 103c32 -20 48 -37 48 -51c0 -7 -19 -24 -62 -64
c-22 -20 -42 -39 -59 -57l18 -17c23 -21 60 -60 81 -80c11 -10 19 -17 26 -22c-19 -29 -37 -44 -53 -44c-4 0 -10 4 -17 11c-8 7 -25 25 -51 53c-15 16 -28 30 -50 54l-18 -18c-57 -57 -91 -93 -102 -107z" />
    <glyph glyph-name="Oslash" unicode="&#xd8;" horiz-adv-x="789" 
d="M111 -15c0 4 6 14 17 30l32 46c-67 61 -100 144 -100 250c0 139 54 265 167 345c56 39 121 59 195 59c57 0 108 -11 155 -34c21 30 37 58 49 83c31 -15 46 -28 46 -39c0 -3 -12 -21 -36 -55l-12 -17c75 -57 114 -149 114 -249c0 -141 -56 -274 -168 -357
c-57 -41 -121 -62 -194 -62c-64 0 -121 14 -170 42c-27 -41 -45 -69 -53 -86c-28 13 -42 28 -42 44zM569 572l-315 -474c35 -39 78 -58 130 -58c138 -2 235 181 231 346c0 73 -15 135 -46 186zM220 150l313 464c-34 31 -74 46 -120 46s-87 -17 -123 -50
c-72 -67 -107 -172 -107 -280c0 -70 12 -130 37 -180z" />
    <glyph glyph-name="Ugrave" unicode="&#xd9;" horiz-adv-x="722" 
d="M93 276c0 21 3 79 10 173c6 94 9 165 9 212l-1 40c21 6 41 9 59 9c43 0 65 -25 65 -75c0 -15 -4 -75 -13 -182s-14 -173 -14 -199c0 -129 58 -209 163 -209c104 0 166 84 186 252c12 96 18 231 18 404c21 6 38 9 51 9c24 0 31 -12 31 -43c0 -54 -10 -173 -30 -357
c-24 -221 -102 -325 -277 -325c-171 0 -257 97 -257 291zM470 744c-31 0 -67 14 -106 41c-40 27 -63 57 -69 89c4 7 8 17 36 35c14 9 29 13 45 13c29 -81 71 -138 126 -169v-5c-7 -3 -18 -4 -32 -4z" />
    <glyph glyph-name="Uacute" unicode="&#xda;" horiz-adv-x="722" 
d="M93 276c0 21 3 79 10 173c6 94 9 165 9 212l-1 40c21 6 41 9 59 9c43 0 65 -25 65 -75c0 -15 -4 -75 -13 -182s-14 -173 -14 -199c0 -129 58 -209 163 -209c104 0 166 84 186 252c12 96 18 231 18 404c21 6 38 9 51 9c24 0 31 -12 31 -43c0 -54 -10 -173 -30 -357
c-24 -221 -102 -325 -277 -325c-171 0 -257 97 -257 291zM287 748v5c57 31 107 87 150 169c43 0 64 -31 71 -43l2 -5c-10 -32 -37 -62 -80 -89s-81 -41 -113 -41c-15 0 -25 1 -30 4z" />
    <glyph glyph-name="Ucircumflex" unicode="&#xdb;" horiz-adv-x="722" 
d="M93 276c0 21 3 79 10 173c6 94 9 165 9 212l-1 40c21 6 41 9 59 9c43 0 65 -25 65 -75c0 -15 -4 -75 -13 -182s-14 -173 -14 -199c0 -129 58 -209 163 -209c104 0 166 84 186 252c12 96 18 231 18 404c21 6 38 9 51 9c24 0 31 -12 31 -43c0 -54 -10 -173 -30 -357
c-24 -221 -102 -325 -277 -325c-171 0 -257 97 -257 291zM250 744c-15 0 -25 1 -31 4v8c28 15 55 36 80 61s43 45 54 62c11 16 20 30 27 43c8 2 15 3 22 3c32 0 54 -29 67 -62s48 -80 100 -107v-8c-6 -3 -16 -4 -31 -4c-22 0 -47 10 -76 29s-49 39 -60 58h-5
c-13 -19 -36 -39 -67 -58s-58 -29 -80 -29z" />
    <glyph glyph-name="Udieresis" unicode="&#xdc;" horiz-adv-x="722" 
d="M93 276c0 21 3 79 10 173c6 94 9 165 9 212l-1 40c21 6 41 9 59 9c43 0 65 -25 65 -75c0 -15 -4 -75 -13 -182s-14 -173 -14 -199c0 -129 58 -209 163 -209c104 0 166 84 186 252c12 96 18 231 18 404c21 6 38 9 51 9c24 0 31 -12 31 -43c0 -54 -10 -173 -30 -357
c-24 -221 -102 -325 -277 -325c-171 0 -257 97 -257 291zM348 801c-24 -24 -60 -24 -83 0c-24 23 -24 59 0 83c23 23 59 23 83 0c23 -24 23 -60 0 -83zM498 783c-31 0 -58 27 -58 59s27 59 58 59c33 0 60 -27 60 -59s-27 -59 -60 -59z" />
    <glyph glyph-name="Yacute" unicode="&#xdd;" horiz-adv-x="610" 
d="M234 48c0 28 3 60 11 147c3 43 7 90 10 139c-25 29 -72 114 -122 210c-25 48 -43 80 -52 95c-11 17 -27 37 -35 46l-7 7v8c17 5 41 8 72 8c30 0 50 -3 61 -10c10 -7 20 -21 29 -42c34 -77 79 -160 135 -251h5c21 33 43 66 64 101c21 34 36 60 47 79s22 37 35 56
c35 52 52 63 95 67c15 0 35 -3 46 -6l7 -2v-8c-23 -16 -45 -37 -66 -62c-23 -29 -60 -80 -110 -151c-50 -72 -82 -120 -95 -143c-7 -98 -11 -178 -11 -240c0 -32 1 -64 3 -96c-39 -7 -60 -10 -63 -10c-39 0 -59 19 -59 58zM233 748v5c57 31 107 87 150 169
c43 0 64 -31 71 -43l2 -5c-10 -32 -37 -62 -80 -89s-81 -41 -113 -41c-15 0 -25 1 -30 4z" />
    <glyph glyph-name="Thorn" unicode="&#xde;" horiz-adv-x="559" 
d="M90 60l22 308c7 104 11 192 11 263l-2 70c21 6 38 9 53 9c41 0 71 -23 71 -59c0 -12 -2 -38 -7 -79h57c78 0 137 -19 178 -57s61 -85 61 -141c1 -151 -146 -237 -277 -233h-48c0 -61 1 -108 2 -139c-40 -7 -61 -10 -64 -10c-40 0 -61 16 -57 68zM211 190h26
c54 0 98 18 132 54s51 77 51 124c0 84 -54 151 -161 151h-26c-11 -127 -18 -236 -22 -329z" />
    <glyph glyph-name="germandbls" unicode="&#xdf;" horiz-adv-x="595" 
d="M-42 -228l-3 9c58 57 96 127 115 210c18 84 28 209 29 375c0 64 -8 80 -33 92l-22 10l2 32c37 0 66 22 70 63c5 56 28 102 71 137c45 37 96 55 155 55c85 0 152 -51 152 -130c0 -120 -140 -152 -140 -233c0 -54 74 -83 131 -120c39 -26 71 -72 71 -129
c0 -50 -17 -89 -51 -116c-35 -28 -75 -42 -120 -42c-33 0 -66 6 -98 17s-48 26 -48 45s9 39 28 59h4c0 -1 44 -67 123 -67c51 0 77 31 77 67c0 94 -203 105 -203 253c0 117 129 135 129 257c0 48 -25 89 -72 89c-73 0 -103 -67 -118 -167c-5 -33 -8 -77 -10 -134
s-3 -109 -4 -157s-5 -100 -12 -156c-16 -112 -40 -191 -104 -255c-32 -32 -72 -53 -119 -64z" />
    <glyph glyph-name="agrave" unicode="&#xe0;" 
d="M157 -14c-76 0 -123 71 -123 183c0 97 27 178 81 245s122 100 204 100c10 0 31 -2 63 -7s61 -7 88 -8l3 -3c-12 -43 -26 -142 -41 -297c-6 -57 -9 -91 -9 -103c0 -27 9 -40 28 -40c28 0 61 31 77 58l11 19l7 -4c-1 -8 -2 -16 -17 -48c-8 -16 -17 -30 -26 -42
c-20 -25 -58 -49 -102 -49c-55 0 -82 27 -82 82c0 11 2 24 5 41h-5c-36 -69 -94 -127 -162 -127zM197 50c27 0 55 23 86 69c30 45 48 88 55 129c7 47 14 104 19 171c-3 32 -20 48 -51 48c-114 0 -164 -172 -164 -291c0 -69 22 -126 55 -126zM374 571c-31 0 -67 14 -106 41
c-40 27 -63 57 -69 89c4 7 8 17 36 35c14 9 29 13 45 13c29 -81 71 -138 126 -169v-5c-7 -3 -18 -4 -32 -4z" />
    <glyph glyph-name="aacute" unicode="&#xe1;" 
d="M157 -14c-76 0 -123 71 -123 183c0 97 27 178 81 245s122 100 204 100c10 0 31 -2 63 -7s61 -7 88 -8l3 -3c-12 -43 -26 -142 -41 -297c-6 -57 -9 -91 -9 -103c0 -27 9 -40 28 -40c28 0 61 31 77 58l11 19l7 -4c-1 -8 -2 -16 -17 -48c-8 -16 -17 -30 -26 -42
c-20 -25 -58 -49 -102 -49c-55 0 -82 27 -82 82c0 11 2 24 5 41h-5c-36 -69 -94 -127 -162 -127zM197 50c27 0 55 23 86 69c30 45 48 88 55 129c7 47 14 104 19 171c-3 32 -20 48 -51 48c-114 0 -164 -172 -164 -291c0 -69 22 -126 55 -126zM191 575v5c57 31 107 87 150 169
c43 0 64 -31 71 -43l2 -5c-10 -32 -37 -62 -80 -89s-81 -41 -113 -41c-15 0 -25 1 -30 4z" />
    <glyph glyph-name="acircumflex" unicode="&#xe2;" 
d="M157 -14c-76 0 -123 71 -123 183c0 97 27 178 81 245s122 100 204 100c10 0 31 -2 63 -7s61 -7 88 -8l3 -3c-12 -43 -26 -142 -41 -297c-6 -57 -9 -91 -9 -103c0 -27 9 -40 28 -40c28 0 61 31 77 58l11 19l7 -4c-1 -8 -2 -16 -17 -48c-8 -16 -17 -30 -26 -42
c-20 -25 -58 -49 -102 -49c-55 0 -82 27 -82 82c0 11 2 24 5 41h-5c-36 -69 -94 -127 -162 -127zM197 50c27 0 55 23 86 69c30 45 48 88 55 129c7 47 14 104 19 171c-3 32 -20 48 -51 48c-114 0 -164 -172 -164 -291c0 -69 22 -126 55 -126zM154 571c-15 0 -25 1 -31 4v8
c28 15 55 36 80 61s43 45 54 62c11 16 20 30 27 43c8 2 15 3 22 3c32 0 54 -29 67 -62s48 -80 100 -107v-8c-6 -3 -16 -4 -31 -4c-22 0 -47 10 -76 29s-49 39 -60 58h-5c-13 -19 -36 -39 -67 -58s-58 -29 -80 -29z" />
    <glyph glyph-name="atilde" unicode="&#xe3;" 
d="M157 -14c-76 0 -123 71 -123 183c0 97 27 178 81 245s122 100 204 100c10 0 31 -2 63 -7s61 -7 88 -8l3 -3c-12 -43 -26 -142 -41 -297c-6 -57 -9 -91 -9 -103c0 -27 9 -40 28 -40c28 0 61 31 77 58l11 19l7 -4c-1 -8 -2 -16 -17 -48c-8 -16 -17 -30 -26 -42
c-20 -25 -58 -49 -102 -49c-55 0 -82 27 -82 82c0 11 2 24 5 41h-5c-36 -69 -94 -127 -162 -127zM197 50c27 0 55 23 86 69c30 45 48 88 55 129c7 47 14 104 19 171c-3 32 -20 48 -51 48c-114 0 -164 -172 -164 -291c0 -69 22 -126 55 -126zM128 614l-5 7
c15 58 56 87 124 87c25 0 54 -8 89 -23c35 -16 61 -24 78 -24c23 0 46 11 69 33l5 -7c-15 -58 -56 -87 -124 -87c-25 0 -55 8 -90 24c-35 15 -60 23 -77 23c-23 0 -46 -11 -69 -33z" />
    <glyph glyph-name="adieresis" unicode="&#xe4;" 
d="M157 -14c-76 0 -123 71 -123 183c0 97 27 178 81 245s122 100 204 100c10 0 31 -2 63 -7s61 -7 88 -8l3 -3c-12 -43 -26 -142 -41 -297c-6 -57 -9 -91 -9 -103c0 -27 9 -40 28 -40c28 0 61 31 77 58l11 19l7 -4c-1 -8 -2 -16 -17 -48c-8 -16 -17 -30 -26 -42
c-20 -25 -58 -49 -102 -49c-55 0 -82 27 -82 82c0 11 2 24 5 41h-5c-36 -69 -94 -127 -162 -127zM197 50c27 0 55 23 86 69c30 45 48 88 55 129c7 47 14 104 19 171c-3 32 -20 48 -51 48c-114 0 -164 -172 -164 -291c0 -69 22 -126 55 -126zM252 628c-24 -24 -60 -24 -83 0
c-24 23 -24 59 0 83c23 23 59 23 83 0c23 -24 23 -60 0 -83zM402 610c-31 0 -58 27 -58 59s27 59 58 59c33 0 60 -27 60 -59s-27 -59 -60 -59z" />
    <glyph glyph-name="aring" unicode="&#xe5;" 
d="M157 -14c-76 0 -123 71 -123 183c0 97 27 178 81 245s122 100 204 100c10 0 31 -2 63 -7s61 -7 88 -8l3 -3c-12 -43 -26 -142 -41 -297c-6 -57 -9 -91 -9 -103c0 -27 9 -40 28 -40c28 0 61 31 77 58l11 19l7 -4c-1 -8 -2 -16 -17 -48c-8 -16 -17 -30 -26 -42
c-20 -25 -58 -49 -102 -49c-55 0 -82 27 -82 82c0 11 2 24 5 41h-5c-36 -69 -94 -127 -162 -127zM197 50c27 0 55 23 86 69c30 45 48 88 55 129c7 47 14 104 19 171c-3 32 -20 48 -51 48c-114 0 -164 -172 -164 -291c0 -69 22 -126 55 -126zM369 600c-37 -35 -91 -35 -126 0
c-36 35 -36 89 0 124c35 35 89 35 126 0c36 -35 36 -89 0 -124zM306 606c32 0 53 28 53 57c0 28 -25 53 -53 53c-29 0 -53 -24 -53 -53c0 -28 24 -57 53 -57z" />
    <glyph glyph-name="ae" unicode="&#xe6;" horiz-adv-x="705" 
d="M15 107c0 60 39 108 96 133c56 24 115 37 172 38c4 41 6 65 6 72c0 67 -25 99 -86 99c-42 0 -84 -26 -126 -78l-7 5c9 35 31 67 66 96c35 28 72 42 111 42c68 0 110 -23 127 -69c48 46 102 69 162 69c81 0 131 -50 131 -115c0 -103 -94 -158 -282 -165v-6
c0 -96 47 -169 123 -169c49 0 98 31 118 55l14 18l8 -3c-1 -8 -3 -17 -19 -49c-9 -17 -19 -31 -30 -44c-24 -25 -72 -50 -128 -50c-69 0 -121 30 -156 90c-53 -60 -113 -90 -178 -90c-75 0 -122 52 -122 121zM119 124c0 -47 26 -68 65 -68c15 0 36 7 62 20
c25 13 42 28 49 44c-9 28 -13 58 -13 89v28c-28 -4 -40 -5 -76 -16c-18 -5 -32 -12 -43 -19c-22 -15 -44 -43 -44 -78zM388 273c100 4 173 39 173 126c0 36 -20 69 -44 69c-29 0 -55 -20 -80 -59s-42 -85 -49 -136z" />
    <glyph glyph-name="ccedilla" unicode="&#xe7;" horiz-adv-x="461" 
d="M171 -79c0 17 12 39 35 66c-51 5 -93 28 -124 69c-32 41 -48 92 -48 153c0 81 25 153 76 214c50 61 109 91 177 91c34 0 67 -6 100 -18c33 -13 49 -31 49 -56s-22 -49 -38 -57l-13 -6h-5c-24 55 -66 93 -102 93c-42 0 -75 -24 -99 -73c-25 -49 -37 -106 -37 -169
c0 -96 47 -169 123 -169c49 0 101 31 121 55l16 18l8 -3c-1 -7 -3 -16 -20 -47c-9 -16 -19 -30 -30 -42c-23 -25 -68 -50 -120 -53c-10 -16 -15 -28 -15 -36c0 -30 91 -5 91 -80c0 -57 -46 -102 -115 -102c-49 0 -79 19 -79 48c0 9 2 17 5 25l5 2c9 -15 30 -23 65 -23
c33 0 51 20 51 35c0 39 -77 20 -77 65z" />
    <glyph glyph-name="egrave" unicode="&#xe8;" horiz-adv-x="462" 
d="M34 209c0 81 25 153 74 214s108 91 175 91c87 0 141 -50 141 -115c0 -68 -39 -116 -100 -140s-115 -32 -182 -35c1 -95 48 -165 123 -165c49 0 98 31 117 55l15 18l8 -3c-1 -8 -3 -17 -19 -49c-9 -17 -19 -31 -30 -44c-24 -25 -72 -50 -128 -50c-57 0 -104 21 -140 62
s-54 95 -54 161zM143 263c101 4 175 43 175 136c0 36 -20 72 -44 72c-33 0 -62 -21 -86 -62c-25 -42 -40 -91 -45 -146zM339 570c-31 0 -67 14 -106 41c-40 27 -63 57 -69 89c4 7 8 17 36 35c14 9 29 13 45 13c29 -81 71 -138 126 -169v-5c-7 -3 -18 -4 -32 -4z" />
    <glyph glyph-name="eacute" unicode="&#xe9;" horiz-adv-x="462" 
d="M34 209c0 81 25 153 74 214s108 91 175 91c87 0 141 -50 141 -115c0 -68 -39 -116 -100 -140s-115 -32 -182 -35c1 -95 48 -165 123 -165c49 0 98 31 117 55l15 18l8 -3c-1 -8 -3 -17 -19 -49c-9 -17 -19 -31 -30 -44c-24 -25 -72 -50 -128 -50c-57 0 -104 21 -140 62
s-54 95 -54 161zM143 263c101 4 175 43 175 136c0 36 -20 72 -44 72c-33 0 -62 -21 -86 -62c-25 -42 -40 -91 -45 -146zM156 574v5c57 31 107 87 150 169c32 0 58 -20 66 -36l7 -12c-10 -32 -37 -62 -80 -89s-81 -41 -113 -41c-15 0 -25 1 -30 4z" />
    <glyph glyph-name="ecircumflex" unicode="&#xea;" horiz-adv-x="462" 
d="M34 209c0 81 25 153 74 214s108 91 175 91c87 0 141 -50 141 -115c0 -68 -39 -116 -100 -140s-115 -32 -182 -35c1 -95 48 -165 123 -165c49 0 98 31 117 55l15 18l8 -3c-1 -8 -3 -17 -19 -49c-9 -17 -19 -31 -30 -44c-24 -25 -72 -50 -128 -50c-57 0 -104 21 -140 62
s-54 95 -54 161zM143 263c101 4 175 43 175 136c0 36 -20 72 -44 72c-33 0 -62 -21 -86 -62c-25 -42 -40 -91 -45 -146zM119 570c-15 0 -25 1 -31 4v8c28 15 55 36 80 61s43 45 54 62c11 16 20 30 27 43c8 2 15 3 22 3c32 0 54 -29 67 -62s48 -80 100 -107v-8
c-6 -3 -16 -4 -31 -4c-22 0 -47 10 -76 29s-49 39 -60 58h-5c-13 -19 -36 -39 -67 -58s-58 -29 -80 -29z" />
    <glyph glyph-name="edieresis" unicode="&#xeb;" horiz-adv-x="462" 
d="M34 209c0 81 25 153 74 214s108 91 175 91c87 0 141 -50 141 -115c0 -68 -39 -116 -100 -140s-115 -32 -182 -35c1 -95 48 -165 123 -165c49 0 98 31 117 55l15 18l8 -3c-1 -8 -3 -17 -19 -49c-9 -17 -19 -31 -30 -44c-24 -25 -72 -50 -128 -50c-57 0 -104 21 -140 62
s-54 95 -54 161zM143 263c101 4 175 43 175 136c0 36 -20 72 -44 72c-33 0 -62 -21 -86 -62c-25 -42 -40 -91 -45 -146zM217 627c-24 -24 -60 -24 -83 0c-24 23 -24 59 0 83c23 23 59 23 83 0c23 -24 23 -60 0 -83zM367 609c-31 0 -58 27 -58 59s27 59 58 59
c33 0 60 -27 60 -59s-27 -59 -60 -59z" />
    <glyph glyph-name="igrave" unicode="&#xec;" horiz-adv-x="296" 
d="M59 69c0 12 5 58 15 137s15 142 16 187c0 37 -5 77 -10 94l-3 13c22 7 41 10 57 10c40 0 63 -27 63 -74c0 -37 -6 -94 -18 -173c-13 -79 -19 -133 -19 -163c0 -29 10 -44 29 -44c29 0 63 31 79 58l11 19l7 -4c-1 -8 -2 -16 -17 -48c-8 -16 -17 -30 -26 -42
c-20 -25 -58 -49 -101 -49c-52 0 -83 27 -83 79zM221 571c-31 0 -67 14 -106 41c-40 27 -63 57 -69 89c4 7 8 17 36 35c14 9 29 13 45 13c29 -81 71 -138 126 -169v-5c-7 -3 -18 -4 -32 -4z" />
    <glyph glyph-name="iacute" unicode="&#xed;" horiz-adv-x="296" 
d="M59 69c0 12 5 58 15 137s15 142 16 187c0 37 -5 77 -10 94l-3 13c22 7 41 10 57 10c40 0 63 -27 63 -74c0 -37 -6 -94 -18 -173c-13 -79 -19 -133 -19 -163c0 -29 10 -44 29 -44c29 0 63 31 79 58l11 19l7 -4c-1 -8 -2 -16 -17 -48c-8 -16 -17 -30 -26 -42
c-20 -25 -58 -49 -101 -49c-52 0 -83 27 -83 79zM38 575v5c57 31 107 87 150 169c42 0 65 -31 70 -43l3 -5c-10 -32 -37 -62 -80 -89s-81 -41 -113 -41c-15 0 -25 1 -30 4z" />
    <glyph glyph-name="icircumflex" unicode="&#xee;" horiz-adv-x="296" 
d="M59 69c0 12 5 58 15 137s15 142 16 187c0 37 -5 77 -10 94l-3 13c22 7 41 10 57 10c40 0 63 -27 63 -74c0 -37 -6 -94 -18 -173c-13 -79 -19 -133 -19 -163c0 -29 10 -44 29 -44c29 0 63 31 79 58l11 19l7 -4c-1 -8 -2 -16 -17 -48c-8 -16 -17 -30 -26 -42
c-20 -25 -58 -49 -101 -49c-52 0 -83 27 -83 79zM1 571c-15 0 -25 1 -31 4v8c28 15 55 36 80 61s43 45 54 62c11 16 20 30 27 43c8 2 15 3 22 3c32 0 54 -29 67 -62s48 -80 100 -107v-8c-6 -3 -16 -4 -31 -4c-22 0 -47 10 -76 29s-49 39 -60 58h-5c-13 -19 -36 -39 -67 -58
s-58 -29 -80 -29z" />
    <glyph glyph-name="idieresis" unicode="&#xef;" horiz-adv-x="296" 
d="M59 69c0 12 5 58 15 137s15 142 16 187c0 37 -5 77 -10 94l-3 13c22 7 41 10 57 10c40 0 63 -27 63 -74c0 -37 -6 -94 -18 -173c-13 -79 -19 -133 -19 -163c0 -29 10 -44 29 -44c29 0 63 31 79 58l11 19l7 -4c-1 -8 -2 -16 -17 -48c-8 -16 -17 -30 -26 -42
c-20 -25 -58 -49 -101 -49c-52 0 -83 27 -83 79zM99 628c-24 -24 -60 -24 -83 0c-24 23 -24 59 0 83c23 23 59 23 83 0c23 -24 23 -60 0 -83zM249 610c-31 0 -58 27 -58 59s27 59 58 59c33 0 60 -27 60 -59s-27 -59 -60 -59z" />
    <glyph glyph-name="eth" unicode="&#xf0;" horiz-adv-x="538" 
d="M36 196c0 87 24 156 72 207c47 51 104 76 170 76c23 0 52 -8 88 -24c-5 61 -18 113 -38 155c-30 -15 -58 -29 -85 -43c-55 -31 -86 -49 -94 -55c-12 21 -18 38 -18 49c0 8 7 16 22 24l144 73c-25 28 -54 42 -88 42c-31 0 -68 -22 -85 -38l-13 -13l-5 3c0 5 0 13 11 38
c5 13 12 24 21 33c16 19 54 38 101 38c54 0 100 -20 139 -61c43 23 73 40 89 52c12 -20 18 -36 18 -49c0 -9 -7 -17 -22 -24c-21 -12 -37 -21 -48 -26c44 -71 66 -161 66 -270c3 -218 -79 -397 -244 -398c-67 0 -117 20 -150 60c-34 40 -51 90 -51 151zM235 29
c39 0 72 36 97 107s38 152 38 245c0 4 -1 16 -1 21c-30 21 -60 32 -89 32c-80 0 -139 -91 -139 -232c0 -97 33 -173 94 -173z" />
    <glyph glyph-name="ntilde" unicode="&#xf1;" horiz-adv-x="585" 
d="M58 -8c0 31 6 96 19 197c12 101 18 169 18 204c0 37 -6 77 -10 94l-3 13c22 7 41 10 57 10c40 0 63 -27 63 -74c0 -17 -3 -40 -6 -52l-3 -8h5c45 85 96 138 179 138c77 0 104 -47 104 -130c0 -32 -5 -81 -16 -148s-16 -112 -16 -136c0 -29 10 -44 29 -44
c29 0 63 31 78 58l12 19l7 -4c-1 -8 -2 -16 -17 -48c-8 -16 -17 -30 -26 -42c-20 -25 -58 -49 -101 -49c-52 0 -83 27 -83 79c0 14 5 58 15 133s15 128 15 161c0 60 -13 85 -45 85c-48 0 -91 -58 -123 -131c-29 -69 -44 -151 -44 -245c0 -39 -5 -62 -16 -69s-41 -11 -92 -11
zM141 613l-5 7c15 58 56 87 124 87c25 0 54 -8 89 -23c35 -16 61 -24 78 -24c23 0 46 11 69 33l5 -7c-15 -58 -56 -87 -124 -87c-25 0 -55 8 -90 24c-35 15 -60 23 -77 23c-23 0 -46 -11 -69 -33z" />
    <glyph glyph-name="ograve" unicode="&#xf2;" 
d="M255 31c44 0 79 26 106 79c26 53 39 112 39 178c0 104 -35 181 -110 181c-31 0 -58 -14 -80 -41c-23 -28 -38 -60 -47 -97s-14 -76 -14 -117c0 -107 35 -183 106 -183zM35 227c0 96 36 187 116 244c40 29 86 43 139 43c69 0 124 -23 164 -68s60 -102 60 -169
c0 -76 -24 -143 -71 -202s-110 -89 -188 -89c-68 0 -122 23 -161 69c-39 45 -59 103 -59 172zM373 570c-31 0 -67 14 -106 41c-40 27 -63 57 -69 89c4 7 8 17 36 35c14 9 29 13 45 13c29 -81 71 -138 126 -169v-5c-7 -3 -18 -4 -32 -4z" />
    <glyph glyph-name="oacute" unicode="&#xf3;" 
d="M255 31c44 0 79 26 106 79c26 53 39 112 39 178c0 104 -35 181 -110 181c-31 0 -58 -14 -80 -41c-23 -28 -38 -60 -47 -97s-14 -76 -14 -117c0 -107 35 -183 106 -183zM35 227c0 96 36 187 116 244c40 29 86 43 139 43c69 0 124 -23 164 -68s60 -102 60 -169
c0 -76 -24 -143 -71 -202s-110 -89 -188 -89c-68 0 -122 23 -161 69c-39 45 -59 103 -59 172zM190 574v5c57 31 107 87 150 169c42 0 65 -31 70 -43l3 -5c-10 -32 -37 -62 -80 -89s-81 -41 -113 -41c-15 0 -25 1 -30 4z" />
    <glyph glyph-name="ocircumflex" unicode="&#xf4;" 
d="M255 31c44 0 79 26 106 79c26 53 39 112 39 178c0 104 -35 181 -110 181c-31 0 -58 -14 -80 -41c-23 -28 -38 -60 -47 -97s-14 -76 -14 -117c0 -107 35 -183 106 -183zM35 227c0 96 36 187 116 244c40 29 86 43 139 43c69 0 124 -23 164 -68s60 -102 60 -169
c0 -76 -24 -143 -71 -202s-110 -89 -188 -89c-68 0 -122 23 -161 69c-39 45 -59 103 -59 172zM153 570c-15 0 -25 1 -31 4v8c28 15 55 36 80 61s43 45 54 62c11 16 20 30 27 43c8 2 15 3 22 3c32 0 54 -29 67 -62s48 -80 100 -107v-8c-6 -3 -16 -4 -31 -4
c-22 0 -47 10 -76 29s-49 39 -60 58h-5c-13 -19 -36 -39 -67 -58s-58 -29 -80 -29z" />
    <glyph glyph-name="otilde" unicode="&#xf5;" 
d="M255 31c44 0 79 26 106 79c26 53 39 112 39 178c0 104 -35 181 -110 181c-31 0 -58 -14 -80 -41c-23 -28 -38 -60 -47 -97s-14 -76 -14 -117c0 -107 35 -183 106 -183zM35 227c0 96 36 187 116 244c40 29 86 43 139 43c69 0 124 -23 164 -68s60 -102 60 -169
c0 -76 -24 -143 -71 -202s-110 -89 -188 -89c-68 0 -122 23 -161 69c-39 45 -59 103 -59 172zM127 613l-5 7c15 58 56 87 124 87c25 0 54 -8 89 -23c35 -16 61 -24 78 -24c23 0 46 11 69 33l5 -7c-15 -58 -56 -87 -124 -87c-25 0 -55 8 -90 24c-35 15 -60 23 -77 23
c-23 0 -46 -11 -69 -33z" />
    <glyph glyph-name="odieresis" unicode="&#xf6;" 
d="M255 31c44 0 79 26 106 79c26 53 39 112 39 178c0 104 -35 181 -110 181c-31 0 -58 -14 -80 -41c-23 -28 -38 -60 -47 -97s-14 -76 -14 -117c0 -107 35 -183 106 -183zM35 227c0 96 36 187 116 244c40 29 86 43 139 43c69 0 124 -23 164 -68s60 -102 60 -169
c0 -76 -24 -143 -71 -202s-110 -89 -188 -89c-68 0 -122 23 -161 69c-39 45 -59 103 -59 172zM251 627c-24 -24 -60 -24 -83 0c-24 23 -24 59 0 83c23 23 59 23 83 0c23 -24 23 -60 0 -83zM401 609c-31 0 -58 27 -58 59s27 59 58 59c33 0 60 -27 60 -59s-27 -59 -60 -59z
" />
    <glyph glyph-name="divide" unicode="&#xf7;" horiz-adv-x="468" 
d="M166 125c0 37 31 68 67 68c37 0 68 -31 68 -68c0 -36 -31 -67 -68 -67c-36 0 -67 31 -67 67zM233 398c-36 0 -67 31 -67 67c0 37 31 68 67 68c37 0 68 -31 68 -68c0 -36 -31 -67 -68 -67zM55 260c-2 11 -3 22 -3 34c0 29 8 43 23 43c42 -3 87 -5 134 -5h88
c54 0 90 2 109 5c3 -13 4 -28 4 -45c0 -21 -5 -32 -14 -32c-41 2 -85 3 -133 4h-92c-59 0 -97 -1 -116 -4z" />
    <glyph glyph-name="oslash" unicode="&#xf8;" horiz-adv-x="559" 
d="M57 -15l43 64c-43 45 -64 104 -64 178c0 96 36 187 116 244c40 29 86 43 139 43c40 0 76 -8 108 -25l4 6c27 40 45 71 56 94c28 -15 42 -28 42 -39c0 -1 -20 -32 -60 -91c49 -45 74 -106 74 -182s-24 -143 -71 -202s-110 -89 -188 -89c-43 0 -80 9 -112 28l-3 -4
c-35 -52 -55 -85 -62 -99c-27 13 -40 27 -40 42c0 4 6 15 18 32zM388 382l-206 -310c18 -27 43 -41 74 -41c44 0 79 26 106 79c26 53 39 112 39 178c0 36 -4 67 -13 94zM158 133l204 301c-19 23 -42 35 -71 35c-31 0 -58 -14 -80 -41c-23 -28 -38 -60 -47 -97
s-14 -76 -14 -117c0 -27 3 -54 8 -81z" />
    <glyph glyph-name="ugrave" unicode="&#xf9;" horiz-adv-x="579" 
d="M58 111c0 26 5 71 15 135s15 116 15 155l-6 99c21 7 39 10 55 10c39 0 59 -28 59 -83c0 -24 -6 -71 -17 -142c-12 -71 -18 -122 -18 -152c0 -53 16 -80 48 -80c43 0 84 43 123 130c28 63 42 131 42 204c0 43 -3 84 -4 101l-2 12c22 7 41 10 57 10c37 0 56 -26 56 -78
c0 -23 -6 -74 -18 -153s-18 -134 -18 -165c0 -39 10 -58 31 -58c27 0 59 31 74 58l12 19l7 -4c-1 -8 -2 -16 -17 -48c-8 -16 -17 -30 -26 -42c-20 -25 -58 -49 -102 -49c-55 0 -83 25 -83 76l7 58h-5c-45 -87 -96 -138 -180 -138c-80 0 -105 49 -105 125zM360 570
c-31 0 -67 14 -106 41c-40 27 -63 57 -69 89c4 7 8 17 36 35c14 9 29 13 45 13c29 -81 71 -138 126 -169v-5c-7 -3 -18 -4 -32 -4z" />
    <glyph glyph-name="uacute" unicode="&#xfa;" horiz-adv-x="579" 
d="M58 111c0 26 5 71 15 135s15 116 15 155l-6 99c21 7 39 10 55 10c39 0 59 -28 59 -83c0 -24 -6 -71 -17 -142c-12 -71 -18 -122 -18 -152c0 -53 16 -80 48 -80c43 0 84 43 123 130c28 63 42 131 42 204c0 43 -3 84 -4 101l-2 12c22 7 41 10 57 10c37 0 56 -26 56 -78
c0 -23 -6 -74 -18 -153s-18 -134 -18 -165c0 -39 10 -58 31 -58c27 0 59 31 74 58l12 19l7 -4c-1 -8 -2 -16 -17 -48c-8 -16 -17 -30 -26 -42c-20 -25 -58 -49 -102 -49c-55 0 -83 25 -83 76l7 58h-5c-45 -87 -96 -138 -180 -138c-80 0 -105 49 -105 125zM177 574v5
c57 31 107 87 150 169c43 0 64 -31 71 -43l2 -5c-10 -32 -37 -62 -80 -89s-81 -41 -113 -41c-15 0 -25 1 -30 4z" />
    <glyph glyph-name="ucircumflex" unicode="&#xfb;" horiz-adv-x="579" 
d="M58 111c0 26 5 71 15 135s15 116 15 155l-6 99c21 7 39 10 55 10c39 0 59 -28 59 -83c0 -24 -6 -71 -17 -142c-12 -71 -18 -122 -18 -152c0 -53 16 -80 48 -80c43 0 84 43 123 130c28 63 42 131 42 204c0 43 -3 84 -4 101l-2 12c22 7 41 10 57 10c37 0 56 -26 56 -78
c0 -23 -6 -74 -18 -153s-18 -134 -18 -165c0 -39 10 -58 31 -58c27 0 59 31 74 58l12 19l7 -4c-1 -8 -2 -16 -17 -48c-8 -16 -17 -30 -26 -42c-20 -25 -58 -49 -102 -49c-55 0 -83 25 -83 76l7 58h-5c-45 -87 -96 -138 -180 -138c-80 0 -105 49 -105 125zM140 570
c-15 0 -25 1 -31 4v8c28 15 55 36 80 61s43 45 54 62c11 16 20 30 27 43c8 2 15 3 22 3c32 0 54 -29 67 -62s48 -80 100 -107v-8c-6 -3 -16 -4 -31 -4c-22 0 -47 10 -76 29s-49 39 -60 58h-5c-13 -19 -36 -39 -67 -58s-58 -29 -80 -29z" />
    <glyph glyph-name="udieresis" unicode="&#xfc;" horiz-adv-x="579" 
d="M58 111c0 26 5 71 15 135s15 116 15 155l-6 99c21 7 39 10 55 10c39 0 59 -28 59 -83c0 -24 -6 -71 -17 -142c-12 -71 -18 -122 -18 -152c0 -53 16 -80 48 -80c43 0 84 43 123 130c28 63 42 131 42 204c0 43 -3 84 -4 101l-2 12c22 7 41 10 57 10c37 0 56 -26 56 -78
c0 -23 -6 -74 -18 -153s-18 -134 -18 -165c0 -39 10 -58 31 -58c27 0 59 31 74 58l12 19l7 -4c-1 -8 -2 -16 -17 -48c-8 -16 -17 -30 -26 -42c-20 -25 -58 -49 -102 -49c-55 0 -83 25 -83 76l7 58h-5c-45 -87 -96 -138 -180 -138c-80 0 -105 49 -105 125zM238 627
c-24 -24 -60 -24 -83 0c-24 23 -24 59 0 83c23 23 59 23 83 0c23 -24 23 -60 0 -83zM388 609c-31 0 -58 27 -58 59s27 59 58 59c33 0 60 -27 60 -59s-27 -59 -60 -59z" />
    <glyph glyph-name="yacute" unicode="&#xfd;" horiz-adv-x="467" 
d="M-53 -138l3 8c25 -7 47 -10 67 -10c56 0 109 33 160 100c-49 278 -105 456 -167 535v5c24 5 45 8 64 8c32 0 49 -8 70 -41c44 -69 77 -200 100 -393c5 10 14 31 29 63c15 31 26 56 33 73s15 38 26 65c20 52 28 96 28 135c0 37 -13 67 -24 76l-8 6v8c13 5 29 8 47 8
c39 0 59 -19 59 -58c0 -43 -18 -107 -54 -191c-37 -85 -65 -143 -84 -176c-3 -5 -9 -17 -19 -36c-11 -19 -19 -35 -26 -48c-14 -25 -43 -75 -65 -104c-22 -28 -57 -67 -85 -88c-29 -21 -67 -37 -102 -37c-41 0 -61 16 -61 47c0 13 5 33 9 45zM136 574v5
c57 31 107 87 150 169c32 0 58 -20 66 -36l7 -12c-10 -32 -37 -62 -80 -89s-81 -41 -113 -41c-15 0 -25 1 -30 4z" />
    <glyph glyph-name="thorn" unicode="&#xfe;" horiz-adv-x="543" 
d="M45 -139c0 69 11 191 33 366c21 169 32 303 32 401c0 50 -3 93 -9 129c50 0 82 -9 96 -26s21 -52 21 -104c0 -47 -7 -127 -21 -239h3c47 85 102 127 165 127c84 0 135 -74 135 -191c0 -94 -28 -173 -85 -238s-127 -97 -210 -97c-23 0 -41 2 -52 7c-3 -37 -4 -80 -4 -128
c0 -37 5 -69 14 -94c-21 -3 -37 -5 -47 -5c-61 0 -71 29 -71 92zM160 86c2 -33 21 -50 58 -50c36 0 68 16 95 47s46 67 58 108s18 83 18 125c0 75 -21 135 -64 135c-30 0 -61 -25 -92 -74c-32 -50 -50 -95 -55 -135c-10 -85 -16 -137 -18 -156z" />
    <glyph glyph-name="ydieresis" unicode="&#xff;" horiz-adv-x="467" 
d="M-53 -138l3 8c25 -7 47 -10 67 -10c56 0 109 33 160 100c-49 278 -105 456 -167 535v5c24 5 45 8 64 8c32 0 49 -8 70 -41c44 -69 77 -200 100 -393c5 10 14 31 29 63c15 31 26 56 33 73s15 38 26 65c20 52 28 96 28 135c0 37 -13 67 -24 76l-8 6v8c13 5 29 8 47 8
c39 0 59 -19 59 -58c0 -43 -18 -107 -54 -191c-37 -85 -65 -143 -84 -176c-3 -5 -9 -17 -19 -36c-11 -19 -19 -35 -26 -48c-14 -25 -43 -75 -65 -104c-22 -28 -57 -67 -85 -88c-29 -21 -67 -37 -102 -37c-41 0 -61 16 -61 47c0 13 5 33 9 45zM197 627c-24 -24 -60 -24 -83 0
c-24 23 -24 59 0 83c23 23 59 23 83 0c23 -24 23 -60 0 -83zM347 609c-31 0 -58 27 -58 59s27 59 58 59c33 0 60 -27 60 -59s-27 -59 -60 -59z" />
    <glyph glyph-name="Amacron" unicode="&#x100;" horiz-adv-x="632" 
d="M-5 -2l-5 2v5c18 13 41 55 70 125l238 583c1 0 33 -1 69 -27c20 -16 44 -50 53 -94c16 -75 38 -166 65 -271c27 -106 50 -184 68 -235c17 -49 30 -76 37 -81v-5c-24 -7 -47 -10 -69 -10c-49 0 -77 20 -84 60c-12 59 -26 120 -41 183c-39 1 -70 2 -95 2
c-38 0 -84 -1 -137 -4c-16 -44 -37 -101 -45 -128c-9 -27 -23 -61 -32 -76c-16 -25 -33 -37 -65 -37c-9 0 -22 4 -27 8zM184 286c40 -1 74 -2 101 -2c24 0 57 1 98 2c-32 131 -59 232 -80 301h-4c-28 -68 -66 -168 -115 -301zM171 786c-1 7 -1 14 -1 23c0 36 9 54 26 54
c63 -3 127 -5 192 -5c54 0 90 2 109 5c1 -7 2 -17 2 -28c0 -33 -6 -49 -17 -49c-63 3 -128 4 -195 4c-59 0 -97 -1 -116 -4z" />
    <glyph glyph-name="amacron" unicode="&#x101;" 
d="M157 -14c-76 0 -123 71 -123 183c0 97 27 178 81 245s122 100 204 100c10 0 31 -2 63 -7s61 -7 88 -8l3 -3c-12 -43 -26 -142 -41 -297c-6 -57 -9 -91 -9 -103c0 -27 9 -40 28 -40c28 0 61 31 77 58l11 19l7 -4c-1 -8 -2 -16 -17 -48c-8 -16 -17 -30 -26 -42
c-20 -25 -58 -49 -102 -49c-55 0 -82 27 -82 82c0 11 2 24 5 41h-5c-36 -69 -94 -127 -162 -127zM197 50c27 0 55 23 86 69c30 45 48 88 55 129c7 47 14 104 19 171c-3 32 -20 48 -51 48c-114 0 -164 -172 -164 -291c0 -69 22 -126 55 -126zM143 613c-1 7 -1 14 -1 23
c0 36 9 54 26 54c63 -3 127 -5 192 -5c54 0 90 2 109 5c1 -7 2 -17 2 -28c0 -33 -6 -49 -17 -49c-63 3 -128 4 -195 4c-59 0 -97 -1 -116 -4z" />
    <glyph glyph-name="Abreve" unicode="&#x102;" horiz-adv-x="632" 
d="M-5 -2l-5 2v5c18 13 41 55 70 125l238 583c1 0 33 -1 69 -27c20 -16 44 -50 53 -94c16 -75 38 -166 65 -271c27 -106 50 -184 68 -235c17 -49 30 -76 37 -81v-5c-24 -7 -47 -10 -69 -10c-49 0 -77 20 -84 60c-12 59 -26 120 -41 183c-39 1 -70 2 -95 2
c-38 0 -84 -1 -137 -4c-16 -44 -37 -101 -45 -128c-9 -27 -23 -61 -32 -76c-16 -25 -33 -37 -65 -37c-9 0 -22 4 -27 8zM184 286c40 -1 74 -2 101 -2c24 0 57 1 98 2c-32 131 -59 232 -80 301h-4c-28 -68 -66 -168 -115 -301zM328 741c-81 0 -146 52 -146 141
c0 27 10 35 35 35l38 -5c-1 -16 -1 -26 -1 -29c0 -47 26 -85 78 -85c51 0 88 43 91 94l1 20c14 3 26 5 36 5c23 0 35 -7 35 -21c0 -49 -17 -87 -51 -114s-73 -41 -116 -41z" />
    <glyph glyph-name="abreve" unicode="&#x103;" 
d="M157 -14c-76 0 -123 71 -123 183c0 97 27 178 81 245s122 100 204 100c10 0 31 -2 63 -7s61 -7 88 -8l3 -3c-12 -43 -26 -142 -41 -297c-6 -57 -9 -91 -9 -103c0 -27 9 -40 28 -40c28 0 61 31 77 58l11 19l7 -4c-1 -8 -2 -16 -17 -48c-8 -16 -17 -30 -26 -42
c-20 -25 -58 -49 -102 -49c-55 0 -82 27 -82 82c0 11 2 24 5 41h-5c-36 -69 -94 -127 -162 -127zM197 50c27 0 55 23 86 69c30 45 48 88 55 129c7 47 14 104 19 171c-3 32 -20 48 -51 48c-114 0 -164 -172 -164 -291c0 -69 22 -126 55 -126zM300 568c-81 0 -146 52 -146 141
c0 27 10 35 35 35l38 -5c-1 -16 -1 -26 -1 -29c0 -47 26 -85 78 -85c51 0 88 43 91 94l1 20c14 3 26 5 36 5c23 0 35 -7 35 -21c0 -49 -17 -87 -51 -114s-73 -41 -116 -41z" />
    <glyph glyph-name="Aogonek" unicode="&#x104;" horiz-adv-x="633" 
d="M-4 -2l-4 2v5c18 14 41 56 68 125l228 583c1 1 33 -3 69 -27c20 -16 44 -50 55 -94c56 -235 103 -404 142 -506c18 -49 31 -76 39 -81v-5c-18 -17 -37 -40 -57 -68c-20 -27 -30 -51 -30 -72c0 -26 15 -39 46 -39c15 0 30 3 45 10l5 -4c-13 -36 -56 -59 -97 -59
c-47 0 -84 30 -84 82c0 48 36 95 109 140h-6c-48 0 -76 20 -85 60c-14 63 -29 124 -44 183c-39 1 -70 2 -95 2c-38 0 -84 -1 -137 -4c-16 -44 -35 -101 -43 -128c-9 -27 -22 -61 -30 -76c-15 -25 -33 -37 -65 -37c-9 0 -22 4 -29 8zM182 286c40 -1 74 -2 101 -2
c24 0 57 1 98 2c-35 134 -64 234 -86 301h-4c-35 -90 -71 -190 -109 -301z" />
    <glyph glyph-name="aogonek" unicode="&#x105;" horiz-adv-x="559" 
d="M157 -14c-76 0 -123 71 -123 183c0 96 27 177 81 244c54 66 122 99 204 99c10 0 31 -2 63 -6s61 -6 88 -7l3 -3c-12 -43 -26 -142 -41 -297c-6 -57 -9 -91 -9 -103c0 -27 9 -40 28 -40c28 0 61 31 77 58l11 19l7 -4c-10 -45 -31 -82 -64 -111c-19 -17 -43 -42 -70 -75
s-41 -61 -41 -83c0 -26 15 -39 46 -39c15 0 30 3 45 10l5 -4c-13 -36 -56 -59 -97 -59c-47 0 -84 30 -84 82c0 48 36 95 109 140c-51 2 -76 29 -76 82c0 11 2 24 5 41h-5c-36 -69 -94 -127 -162 -127zM197 50c27 0 55 23 86 69c30 45 48 88 55 129c7 47 14 104 19 171
c-3 31 -20 46 -51 46c-114 0 -164 -170 -164 -289c0 -69 22 -126 55 -126z" />
    <glyph glyph-name="Cacute" unicode="&#x106;" horiz-adv-x="667" 
d="M59 317c0 136 58 263 170 340c56 39 119 58 190 58c59 0 122 -8 175 -40c27 -16 40 -36 40 -60c0 -27 -17 -59 -42 -74h-8c-24 35 -47 61 -69 78c-34 25 -71 38 -110 38c-60 0 -113 -28 -158 -84c-46 -57 -69 -133 -69 -230c0 -79 19 -143 57 -194s95 -76 171 -76
c104 0 174 55 192 79l8 9l7 -4c-3 -9 -4 -20 -28 -59c-13 -20 -27 -38 -43 -53c-33 -31 -99 -60 -174 -60c-97 0 -172 32 -227 97c-55 64 -82 142 -82 235zM268 748v5c57 31 107 87 150 169c32 0 58 -20 66 -36l7 -12c-10 -32 -37 -62 -80 -89s-81 -41 -113 -41
c-15 0 -25 1 -30 4z" />
    <glyph glyph-name="cacute" unicode="&#x107;" horiz-adv-x="461" 
d="M34 209c0 81 25 153 76 214c50 61 109 91 177 91c34 0 67 -6 100 -18c33 -13 49 -31 49 -56s-22 -49 -38 -57l-13 -6h-5c-24 55 -66 93 -102 93c-42 0 -75 -24 -99 -73c-25 -49 -37 -106 -37 -169c0 -96 47 -169 123 -169c49 0 101 31 121 55l16 18l8 -3
c-1 -8 -2 -17 -21 -49c-9 -17 -20 -31 -32 -44c-24 -25 -73 -50 -129 -50c-57 0 -104 21 -140 62s-54 95 -54 161zM155 575v5c57 31 107 87 150 169c43 0 64 -31 71 -43l2 -5c-10 -32 -37 -62 -80 -89s-81 -41 -113 -41c-15 0 -25 1 -30 4z" />
    <glyph glyph-name="Ccircumflex" unicode="&#x108;" horiz-adv-x="667" 
d="M59 317c0 136 58 263 170 340c56 39 119 58 190 58c59 0 122 -8 175 -40c27 -16 40 -36 40 -60c0 -27 -17 -59 -42 -74h-8c-24 35 -47 61 -69 78c-34 25 -71 38 -110 38c-60 0 -113 -28 -158 -84c-46 -57 -69 -133 -69 -230c0 -79 19 -143 57 -194s95 -76 171 -76
c104 0 174 55 192 79l8 9l7 -4c-3 -9 -4 -20 -28 -59c-13 -20 -27 -38 -43 -53c-33 -31 -99 -60 -174 -60c-97 0 -172 32 -227 97c-55 64 -82 142 -82 235zM231 744c-15 0 -25 1 -31 4v8c28 15 55 36 80 61s43 45 54 62c11 16 20 30 27 43c8 2 15 3 22 3c32 0 54 -29 67 -62
s48 -80 100 -107v-8c-6 -3 -16 -4 -31 -4c-22 0 -47 10 -76 29s-49 39 -60 58h-5c-13 -19 -36 -39 -67 -58s-58 -29 -80 -29z" />
    <glyph glyph-name="ccircumflex" unicode="&#x109;" horiz-adv-x="461" 
d="M34 209c0 81 25 153 76 214c50 61 109 91 177 91c34 0 67 -6 100 -18c33 -13 49 -31 49 -56s-22 -49 -38 -57l-13 -6h-5c-24 55 -66 93 -102 93c-42 0 -75 -24 -99 -73c-25 -49 -37 -106 -37 -169c0 -96 47 -169 123 -169c49 0 101 31 121 55l16 18l8 -3
c-1 -8 -2 -17 -21 -49c-9 -17 -20 -31 -32 -44c-24 -25 -73 -50 -129 -50c-57 0 -104 21 -140 62s-54 95 -54 161zM118 571c-15 0 -25 1 -31 4v8c28 15 55 36 80 61s43 45 54 62c11 16 20 30 27 43c8 2 15 3 22 3c32 0 54 -29 67 -62s48 -80 100 -107v-8
c-6 -3 -16 -4 -31 -4c-22 0 -47 10 -76 29s-49 39 -60 58h-5c-13 -19 -36 -39 -67 -58s-58 -29 -80 -29z" />
    <glyph glyph-name="Cdotaccent" unicode="&#x10a;" horiz-adv-x="667" 
d="M59 317c0 136 58 263 170 340c56 39 119 58 190 58c59 0 122 -8 175 -40c27 -16 40 -36 40 -60c0 -27 -17 -59 -42 -74h-8c-24 35 -47 61 -69 78c-34 25 -71 38 -110 38c-60 0 -113 -28 -158 -84c-46 -57 -69 -133 -69 -230c0 -79 19 -143 57 -194s95 -76 171 -76
c104 0 174 55 192 79l8 9l7 -4c-3 -9 -4 -20 -28 -59c-13 -20 -27 -38 -43 -53c-33 -31 -99 -60 -174 -60c-97 0 -172 32 -227 97c-55 64 -82 142 -82 235zM427 790c-25 -25 -65 -25 -90 0s-25 65 0 90s65 25 90 0s25 -65 0 -90z" />
    <glyph glyph-name="cdotaccent" unicode="&#x10b;" horiz-adv-x="461" 
d="M34 209c0 81 25 153 76 214c50 61 109 91 177 91c34 0 67 -6 100 -18c33 -13 49 -31 49 -56s-22 -49 -38 -57l-13 -6h-5c-24 55 -66 93 -102 93c-42 0 -75 -24 -99 -73c-25 -49 -37 -106 -37 -169c0 -96 47 -169 123 -169c49 0 101 31 121 55l16 18l8 -3
c-1 -8 -2 -17 -21 -49c-9 -17 -20 -31 -32 -44c-24 -25 -73 -50 -129 -50c-57 0 -104 21 -140 62s-54 95 -54 161zM314 617c-25 -25 -65 -25 -90 0s-25 65 0 90s65 25 90 0s25 -65 0 -90z" />
    <glyph glyph-name="Ccaron" unicode="&#x10c;" horiz-adv-x="667" 
d="M59 317c0 136 58 263 170 340c56 39 119 58 190 58c59 0 122 -8 175 -40c27 -16 40 -36 40 -60c0 -27 -17 -59 -42 -74h-8c-24 35 -47 61 -69 78c-34 25 -71 38 -110 38c-60 0 -113 -28 -158 -84c-46 -57 -69 -133 -69 -230c0 -79 19 -143 57 -194s95 -76 171 -76
c104 0 174 55 192 79l8 9l7 -4c-3 -9 -4 -20 -28 -59c-13 -20 -27 -38 -43 -53c-33 -31 -99 -60 -174 -60c-97 0 -172 32 -227 97c-55 64 -82 142 -82 235zM350 744c-27 74 -68 129 -125 166v8c6 3 16 4 30 4c21 0 45 -10 72 -29c26 -19 44 -39 54 -58h5c12 19 33 39 63 58
s55 29 76 29c14 0 24 -1 30 -4v-8c-53 -27 -94 -74 -110 -107c-17 -33 -42 -62 -73 -62c-7 0 -14 1 -22 3z" />
    <glyph glyph-name="ccaron" unicode="&#x10d;" horiz-adv-x="461" 
d="M34 209c0 81 25 153 76 214c50 61 109 91 177 91c34 0 67 -6 100 -18c33 -13 49 -31 49 -56s-22 -49 -38 -57l-13 -6h-5c-24 55 -66 93 -102 93c-42 0 -75 -24 -99 -73c-25 -49 -37 -106 -37 -169c0 -96 47 -169 123 -169c49 0 101 31 121 55l16 18l8 -3
c-1 -8 -2 -17 -21 -49c-9 -17 -20 -31 -32 -44c-24 -25 -73 -50 -129 -50c-57 0 -104 21 -140 62s-54 95 -54 161zM237 571c-27 74 -68 129 -125 166v8c6 3 16 4 30 4c21 0 45 -10 72 -29c26 -19 44 -39 54 -58h5c12 19 33 39 63 58s55 29 76 29c14 0 24 -1 30 -4v-8
c-53 -27 -94 -74 -110 -107c-17 -33 -42 -62 -73 -62c-7 0 -14 1 -22 3z" />
    <glyph glyph-name="Dcaron" unicode="&#x10e;" horiz-adv-x="762" 
d="M76 0c6 19 16 111 30 277c12 145 18 259 18 342c0 54 -1 81 -3 81h201c103 0 189 -20 265 -67c76 -48 123 -138 123 -259c0 -110 -33 -201 -99 -274c-67 -73 -153 -109 -258 -109c-7 0 -40 1 -99 4s-118 5 -178 5zM205 94c0 -20 13 -34 38 -41s51 -11 78 -11
c84 0 150 30 197 91s71 136 71 226c0 212 -146 288 -309 288h-36c-26 -325 -39 -510 -39 -553zM373 744c-27 74 -68 129 -125 166v8c6 3 16 4 30 4c21 0 45 -10 72 -29c26 -19 44 -39 54 -58h5c12 19 33 39 63 58s55 29 76 29c14 0 24 -1 30 -4v-8
c-53 -27 -94 -74 -110 -107c-17 -33 -42 -62 -73 -62c-7 0 -14 1 -22 3z" />
    <glyph glyph-name="dcaron" unicode="&#x10f;" horiz-adv-x="574" 
d="M167 -14c-84 0 -135 74 -135 191c0 94 29 173 86 238s126 97 209 97c19 0 36 -2 50 -6c3 56 4 98 4 127c0 47 -5 89 -14 124c51 0 85 -8 100 -25s22 -48 22 -92c0 -59 -9 -159 -26 -302c-18 -143 -27 -224 -27 -242c0 -27 9 -40 28 -40c28 0 61 31 76 58l12 19l7 -4
c-1 -8 -2 -16 -17 -48c-8 -16 -17 -30 -26 -42c-20 -25 -58 -49 -102 -49c-55 0 -82 27 -82 82c0 11 2 24 5 41h-5c-47 -85 -102 -127 -165 -127zM207 50c28 0 57 23 88 68s49 88 56 129c7 46 14 103 19 172c-3 31 -21 46 -56 46c-36 0 -67 -15 -94 -46s-47 -68 -59 -109
s-18 -83 -18 -125c0 -75 21 -135 64 -135zM630 757c39 0 58 -31 58 -72c0 -60 -37 -115 -104 -115c-25 0 -47 10 -54 18l-6 5l4 7c9 -5 19 -8 31 -8c27 0 54 21 54 48c0 10 -7 20 -20 29c-14 9 -21 21 -21 36c0 32 25 52 58 52z" />
    <glyph glyph-name="Dcroat" unicode="&#x110;" horiz-adv-x="764" 
d="M78 0c9 19 20 126 33 319c-45 -1 -74 -3 -87 -4c-1 8 -2 17 -2 26c0 43 7 50 35 50c25 0 45 0 58 -1c7 117 11 199 11 246l-3 64h201c103 0 189 -20 265 -67c76 -48 123 -138 123 -258c0 -108 -33 -199 -99 -273c-67 -74 -147 -111 -241 -111c-23 0 -62 1 -119 4
s-115 5 -175 5zM207 94c0 -35 43 -52 128 -52c75 0 137 31 185 92c47 61 71 136 71 223c0 214 -147 291 -298 290c-21 0 -36 0 -47 -1l-21 -259h62c59 0 97 1 116 4c2 -11 3 -22 3 -34c0 -35 -9 -42 -36 -42c-19 0 -47 1 -84 2c-38 1 -60 1 -66 1c-9 -133 -13 -207 -13 -224
z" />
    <glyph glyph-name="dslash" unicode="&#x111;" horiz-adv-x="574" 
d="M167 -14c-84 0 -135 74 -135 191c0 94 29 173 86 238s126 97 209 97c19 0 36 -2 50 -6c0 21 3 64 3 84h-43c-55 0 -92 -1 -110 -4c-2 11 -3 22 -3 34c0 29 7 43 22 43c40 -3 82 -5 127 -5h7c-1 35 -6 68 -13 99c95 0 118 -27 121 -99c35 0 59 2 72 5c3 -13 4 -28 4 -45
c0 -21 -4 -32 -13 -32c-18 1 -39 1 -64 2c-3 -59 -12 -151 -27 -276c-16 -125 -24 -197 -24 -216c0 -27 9 -40 28 -40c28 0 61 31 76 58l12 19l7 -4c-1 -8 -2 -16 -17 -48c-8 -16 -17 -30 -26 -42c-20 -25 -58 -49 -102 -49c-55 0 -82 27 -82 82c0 11 2 24 5 41h-5
c-47 -85 -102 -127 -165 -127zM207 50c28 0 57 23 88 68s49 88 56 129c7 46 14 103 19 172c-3 31 -21 46 -56 46c-36 0 -67 -15 -94 -46s-47 -68 -59 -109s-18 -83 -18 -125c0 -75 21 -135 64 -135z" />
    <glyph glyph-name="Emacron" unicode="&#x112;" horiz-adv-x="551" 
d="M411 -5l-335 5c9 19 19 111 31 277c11 161 16 279 16 354l-2 69h175c85 0 162 4 190 8l20 2c-5 -32 -7 -40 -18 -59c-12 -19 -32 -24 -65 -24c-67 0 -132 7 -159 12l-19 4c-1 -24 -6 -75 -12 -151c-3 -38 -6 -70 -8 -95h146c23 0 43 4 51 7l5 3c-4 -52 -17 -74 -62 -74
l-145 6c-5 -63 -8 -123 -11 -180c-3 -58 -5 -89 -5 -93l175 5c61 2 104 9 129 22c-1 -44 -7 -71 -18 -82c-12 -11 -38 -16 -79 -16zM168 786c-1 7 -1 14 -1 23c0 36 9 54 26 54c63 -3 127 -5 192 -5c54 0 90 2 109 5c1 -7 2 -17 2 -28c0 -33 -6 -49 -17 -49
c-63 3 -128 4 -195 4c-59 0 -97 -1 -116 -4z" />
    <glyph glyph-name="emacron" unicode="&#x113;" horiz-adv-x="462" 
d="M34 209c0 81 25 153 74 214s108 91 175 91c87 0 141 -50 141 -115c0 -68 -39 -116 -100 -140s-115 -32 -182 -35c1 -95 48 -165 123 -165c49 0 98 31 117 55l15 18l8 -3c-1 -8 -3 -17 -19 -49c-9 -17 -19 -31 -30 -44c-24 -25 -72 -50 -128 -50c-57 0 -104 21 -140 62
s-54 95 -54 161zM143 263c101 4 175 43 175 136c0 36 -20 72 -44 72c-33 0 -62 -21 -86 -62c-25 -42 -40 -91 -45 -146zM108 612c-1 7 -1 14 -1 23c0 36 9 54 26 54c63 -3 127 -5 192 -5c54 0 90 2 109 5c1 -7 2 -17 2 -28c0 -33 -6 -49 -17 -49c-63 3 -128 4 -195 4
c-59 0 -97 -1 -116 -4z" />
    <glyph glyph-name="Ebreve" unicode="&#x114;" horiz-adv-x="551" 
d="M411 -5l-335 5c9 19 19 111 31 277c11 161 16 279 16 354l-2 69h175c85 0 162 4 190 8l20 2c-5 -32 -7 -40 -18 -59c-12 -19 -32 -24 -65 -24c-67 0 -132 7 -159 12l-19 4c-1 -24 -6 -75 -12 -151c-3 -38 -6 -70 -8 -95h146c23 0 43 4 51 7l5 3c-4 -52 -17 -74 -62 -74
l-145 6c-5 -63 -8 -123 -11 -180c-3 -58 -5 -89 -5 -93l175 5c61 2 104 9 129 22c-1 -44 -7 -71 -18 -82c-12 -11 -38 -16 -79 -16zM325 741c-81 0 -146 52 -146 141c0 27 10 35 35 35l38 -5c-1 -16 -1 -26 -1 -29c0 -47 26 -85 78 -85c51 0 88 43 91 94l1 20
c14 3 26 5 36 5c23 0 35 -7 35 -21c0 -49 -17 -87 -51 -114s-73 -41 -116 -41z" />
    <glyph glyph-name="ebreve" unicode="&#x115;" horiz-adv-x="462" 
d="M34 209c0 81 25 153 74 214s108 91 175 91c87 0 141 -50 141 -115c0 -68 -39 -116 -100 -140s-115 -32 -182 -35c1 -95 48 -165 123 -165c49 0 98 31 117 55l15 18l8 -3c-1 -8 -3 -17 -19 -49c-9 -17 -19 -31 -30 -44c-24 -25 -72 -50 -128 -50c-57 0 -104 21 -140 62
s-54 95 -54 161zM143 263c101 4 175 43 175 136c0 36 -20 72 -44 72c-33 0 -62 -21 -86 -62c-25 -42 -40 -91 -45 -146zM265 567c-81 0 -146 52 -146 141c0 27 10 35 35 35l38 -5c-1 -16 -1 -26 -1 -29c0 -47 26 -85 78 -85c51 0 88 43 91 94l1 20c14 3 26 5 36 5
c23 0 35 -7 35 -21c0 -49 -17 -87 -51 -114s-73 -41 -116 -41z" />
    <glyph glyph-name="Edotaccent" unicode="&#x116;" horiz-adv-x="551" 
d="M411 -5l-335 5c9 19 19 111 31 277c11 161 16 279 16 354l-2 69h175c85 0 162 4 190 8l20 2c-5 -32 -7 -40 -18 -59c-12 -19 -32 -24 -65 -24c-67 0 -132 7 -159 12l-19 4c-1 -24 -6 -75 -12 -151c-3 -38 -6 -70 -8 -95h146c23 0 43 4 51 7l5 3c-4 -52 -17 -74 -62 -74
l-145 6c-5 -63 -8 -123 -11 -180c-3 -58 -5 -89 -5 -93l175 5c61 2 104 9 129 22c-1 -44 -7 -71 -18 -82c-12 -11 -38 -16 -79 -16zM375 790c-25 -25 -65 -25 -90 0s-25 65 0 90s65 25 90 0s25 -65 0 -90z" />
    <glyph glyph-name="edotaccent" unicode="&#x117;" horiz-adv-x="462" 
d="M34 209c0 81 25 153 74 214s108 91 175 91c87 0 141 -50 141 -115c0 -68 -39 -116 -100 -140s-115 -32 -182 -35c1 -95 48 -165 123 -165c49 0 98 31 117 55l15 18l8 -3c-1 -8 -3 -17 -19 -49c-9 -17 -19 -31 -30 -44c-24 -25 -72 -50 -128 -50c-57 0 -104 21 -140 62
s-54 95 -54 161zM143 263c101 4 175 43 175 136c0 36 -20 72 -44 72c-33 0 -62 -21 -86 -62c-25 -42 -40 -91 -45 -146zM315 616c-25 -25 -65 -25 -90 0s-25 65 0 90s65 25 90 0s25 -65 0 -90z" />
    <glyph glyph-name="Eogonek" unicode="&#x118;" horiz-adv-x="553" 
d="M417 -5l-335 5c8 19 17 111 26 277c7 133 10 239 10 318c0 76 -1 100 -4 103v2h175c85 0 162 4 189 8l21 2c-5 -33 -6 -40 -17 -59s-31 -24 -64 -24c-67 0 -133 7 -160 12l-19 4l-15 -246h146c23 0 43 4 50 7l6 3c-4 -53 -16 -74 -61 -74l-145 6l-6 -104
c-1 -16 -1 -43 -2 -80s-2 -67 -3 -89l174 5c61 2 104 9 129 22c0 -48 -8 -77 -24 -88c-19 -17 -39 -40 -62 -69s-34 -55 -34 -76c0 -26 15 -39 46 -39c15 0 30 3 45 10l5 -4c-13 -36 -56 -59 -97 -59c-47 0 -84 30 -84 82c0 50 39 98 118 145h-8z" />
    <glyph glyph-name="eogonek" unicode="&#x119;" horiz-adv-x="462" 
d="M139 -150c0 47 35 92 104 137c-3 -1 -8 -1 -15 -1c-57 0 -104 21 -140 62s-54 95 -54 161c0 82 25 154 75 215c49 61 109 91 179 91c84 0 136 -51 136 -116c0 -68 -39 -116 -100 -140s-115 -32 -182 -35c1 -95 48 -165 123 -165c49 0 98 31 117 55l15 18l8 -3
c-11 -43 -34 -79 -69 -110c-19 -17 -50 -47 -85 -98c-18 -25 -27 -46 -27 -61c0 -26 15 -39 46 -39c15 0 30 3 45 10l5 -4c-13 -36 -56 -59 -97 -59c-47 0 -84 30 -84 82zM144 263c100 4 174 43 174 136c0 36 -20 72 -44 72c-33 0 -62 -21 -85 -62c-24 -41 -39 -90 -45 -146
z" />
    <glyph glyph-name="Ecaron" unicode="&#x11a;" horiz-adv-x="551" 
d="M411 -5l-335 5c9 19 19 111 31 277c11 161 16 279 16 354l-2 69h175c85 0 162 4 190 8l20 2c-5 -32 -7 -40 -18 -59c-12 -19 -32 -24 -65 -24c-67 0 -132 7 -159 12l-19 4c-1 -24 -6 -75 -12 -151c-3 -38 -6 -70 -8 -95h146c23 0 43 4 51 7l5 3c-4 -52 -17 -74 -62 -74
l-145 6c-5 -63 -8 -123 -11 -180c-3 -58 -5 -89 -5 -93l175 5c61 2 104 9 129 22c-1 -44 -7 -71 -18 -82c-12 -11 -38 -16 -79 -16zM298 744c-27 74 -68 129 -125 166v8c6 3 16 4 30 4c21 0 45 -10 72 -29c26 -19 44 -39 54 -58h5c12 19 33 39 63 58s55 29 76 29
c14 0 24 -1 30 -4v-8c-53 -27 -94 -74 -110 -107c-17 -33 -42 -62 -73 -62c-7 0 -14 1 -22 3z" />
    <glyph glyph-name="ecaron" unicode="&#x11b;" horiz-adv-x="462" 
d="M34 209c0 81 25 153 74 214s108 91 175 91c87 0 141 -50 141 -115c0 -68 -39 -116 -100 -140s-115 -32 -182 -35c1 -95 48 -165 123 -165c49 0 98 31 117 55l15 18l8 -3c-1 -8 -3 -17 -19 -49c-9 -17 -19 -31 -30 -44c-24 -25 -72 -50 -128 -50c-57 0 -104 21 -140 62
s-54 95 -54 161zM143 263c101 4 175 43 175 136c0 36 -20 72 -44 72c-33 0 -62 -21 -86 -62c-25 -42 -40 -91 -45 -146zM238 570c-27 74 -68 129 -125 166v8c6 3 16 4 30 4c21 0 45 -10 72 -29c26 -19 44 -39 54 -58h5c12 19 33 39 63 58s55 29 76 29c14 0 24 -1 30 -4v-8
c-53 -27 -94 -74 -110 -107c-17 -33 -42 -62 -73 -62c-7 0 -14 1 -22 3z" />
    <glyph glyph-name="Gcircumflex" unicode="&#x11c;" horiz-adv-x="702" 
d="M60 324c0 95 34 190 94 266c60 75 157 125 269 125c43 0 90 -6 138 -18s83 -37 83 -68c0 -28 -19 -69 -42 -84h-8c-50 75 -114 112 -191 112c-58 0 -110 -27 -155 -81c-46 -54 -69 -128 -69 -222c0 -87 19 -160 57 -218c37 -58 93 -87 168 -87c35 0 68 5 101 15
c11 72 16 134 16 186c0 25 -4 52 -7 64l-3 9c7 3 20 5 39 5c63 0 85 -16 85 -73c0 -17 -4 -59 -12 -125s-12 -106 -12 -121c0 -3 1 -7 1 -8l-5 -5c-8 2 -20 3 -36 3c-17 0 -50 -2 -98 -7s-83 -7 -105 -7c-99 0 -175 33 -228 98s-80 145 -80 241zM258 744c-15 0 -25 1 -31 4
v8c28 15 55 36 80 61s43 45 54 62c11 16 20 30 27 43c8 2 15 3 22 3c32 0 54 -29 67 -62s48 -80 100 -107v-8c-6 -3 -16 -4 -31 -4c-22 0 -47 10 -76 29s-49 39 -60 58h-5c-13 -19 -36 -39 -67 -58s-58 -29 -80 -29z" />
    <glyph glyph-name="gcircumflex" unicode="&#x11d;" horiz-adv-x="516" 
d="M29 -112c0 44 31 62 91 79l6 -5c-8 -13 -12 -30 -12 -53c0 -55 28 -99 87 -99c67 0 124 57 124 154c0 8 -1 23 -2 44s-2 39 -2 54c0 18 1 35 2 51h-5c-36 -60 -94 -112 -161 -112c-76 0 -124 67 -124 179c0 91 27 169 81 234s121 98 201 98c13 0 35 -2 67 -6
c31 -4 60 -6 87 -7l3 -3c-18 -68 -32 -168 -41 -301c-1 -24 -4 -78 -6 -108c-1 -15 -3 -34 -5 -57c-5 -45 -11 -71 -22 -110c-28 -87 -83 -149 -201 -150c-55 0 -96 12 -125 36c-29 25 -43 52 -43 82zM198 65c25 0 53 21 84 64c30 42 48 82 55 119c7 35 13 92 19 171
c-3 31 -20 46 -52 46c-35 0 -66 -16 -92 -49s-44 -69 -55 -110s-17 -81 -17 -120c0 -71 22 -121 58 -121zM153 570c-15 0 -25 1 -31 4v8c28 15 55 36 80 61s43 45 54 62c11 16 20 30 27 43c8 2 15 3 22 3c32 0 54 -29 67 -62s48 -80 100 -107v-8c-6 -3 -16 -4 -31 -4
c-22 0 -47 10 -76 29s-49 39 -60 58h-5c-13 -19 -36 -39 -67 -58s-58 -29 -80 -29z" />
    <glyph glyph-name="Gbreve" unicode="&#x11e;" horiz-adv-x="702" 
d="M60 324c0 95 34 190 94 266c60 75 157 125 269 125c43 0 90 -6 138 -18s83 -37 83 -68c0 -28 -19 -69 -42 -84h-8c-50 75 -114 112 -191 112c-58 0 -110 -27 -155 -81c-46 -54 -69 -128 -69 -222c0 -87 19 -160 57 -218c37 -58 93 -87 168 -87c35 0 68 5 101 15
c11 72 16 134 16 186c0 25 -4 52 -7 64l-3 9c7 3 20 5 39 5c63 0 85 -16 85 -73c0 -17 -4 -59 -12 -125s-12 -106 -12 -121c0 -3 1 -7 1 -8l-5 -5c-8 2 -20 3 -36 3c-17 0 -50 -2 -98 -7s-83 -7 -105 -7c-99 0 -175 33 -228 98s-80 145 -80 241zM404 741
c-81 0 -146 52 -146 141c0 27 10 35 35 35l38 -5c-1 -16 -1 -26 -1 -29c0 -47 26 -85 78 -85c51 0 88 43 91 94l1 20c14 3 26 5 36 5c23 0 35 -7 35 -21c0 -49 -17 -87 -51 -114s-73 -41 -116 -41z" />
    <glyph glyph-name="gbreve" unicode="&#x11f;" horiz-adv-x="516" 
d="M29 -112c0 44 31 62 91 79l6 -5c-8 -13 -12 -30 -12 -53c0 -55 28 -99 87 -99c67 0 124 57 124 154c0 8 -1 23 -2 44s-2 39 -2 54c0 18 1 35 2 51h-5c-36 -60 -94 -112 -161 -112c-76 0 -124 67 -124 179c0 91 27 169 81 234s121 98 201 98c13 0 35 -2 67 -6
c31 -4 60 -6 87 -7l3 -3c-18 -68 -32 -168 -41 -301c-1 -24 -4 -78 -6 -108c-1 -15 -3 -34 -5 -57c-5 -45 -11 -71 -22 -110c-28 -87 -83 -149 -201 -150c-55 0 -96 12 -125 36c-29 25 -43 52 -43 82zM198 65c25 0 53 21 84 64c30 42 48 82 55 119c7 35 13 92 19 171
c-3 31 -20 46 -52 46c-35 0 -66 -16 -92 -49s-44 -69 -55 -110s-17 -81 -17 -120c0 -71 22 -121 58 -121zM299 567c-81 0 -146 52 -146 141c0 27 10 35 35 35l38 -5c-1 -16 -1 -26 -1 -29c0 -47 26 -85 78 -85c51 0 88 43 91 94l1 20c14 3 26 5 36 5c23 0 35 -7 35 -21
c0 -49 -17 -87 -51 -114s-73 -41 -116 -41z" />
    <glyph glyph-name="Gdotaccent" unicode="&#x120;" horiz-adv-x="702" 
d="M60 324c0 95 34 190 94 266c60 75 157 125 269 125c43 0 90 -6 138 -18s83 -37 83 -68c0 -28 -19 -69 -42 -84h-8c-50 75 -114 112 -191 112c-58 0 -110 -27 -155 -81c-46 -54 -69 -128 -69 -222c0 -87 19 -160 57 -218c37 -58 93 -87 168 -87c35 0 68 5 101 15
c11 72 16 134 16 186c0 25 -4 52 -7 64l-3 9c7 3 20 5 39 5c63 0 85 -16 85 -73c0 -17 -4 -59 -12 -125s-12 -106 -12 -121c0 -3 1 -7 1 -8l-5 -5c-8 2 -20 3 -36 3c-17 0 -50 -2 -98 -7s-83 -7 -105 -7c-99 0 -175 33 -228 98s-80 145 -80 241zM454 790
c-25 -25 -65 -25 -90 0s-25 65 0 90s65 25 90 0s25 -65 0 -90z" />
    <glyph glyph-name="gdotaccent" unicode="&#x121;" horiz-adv-x="516" 
d="M29 -112c0 44 31 62 91 79l6 -5c-8 -13 -12 -30 -12 -53c0 -55 28 -99 87 -99c67 0 124 57 124 154c0 8 -1 23 -2 44s-2 39 -2 54c0 18 1 35 2 51h-5c-36 -60 -94 -112 -161 -112c-76 0 -124 67 -124 179c0 91 27 169 81 234s121 98 201 98c13 0 35 -2 67 -6
c31 -4 60 -6 87 -7l3 -3c-18 -68 -32 -168 -41 -301c-1 -24 -4 -78 -6 -108c-1 -15 -3 -34 -5 -57c-5 -45 -11 -71 -22 -110c-28 -87 -83 -149 -201 -150c-55 0 -96 12 -125 36c-29 25 -43 52 -43 82zM198 65c25 0 53 21 84 64c30 42 48 82 55 119c7 35 13 92 19 171
c-3 31 -20 46 -52 46c-35 0 -66 -16 -92 -49s-44 -69 -55 -110s-17 -81 -17 -120c0 -71 22 -121 58 -121zM349 616c-25 -25 -65 -25 -90 0s-25 65 0 90s65 25 90 0s25 -65 0 -90z" />
    <glyph glyph-name="Gcommaaccent" unicode="&#x122;" horiz-adv-x="702" 
d="M60 324c0 95 34 190 94 266c60 75 157 125 269 125c43 0 90 -6 138 -18s83 -37 83 -68c0 -28 -19 -69 -42 -84h-8c-50 75 -114 112 -191 112c-58 0 -110 -27 -155 -81c-46 -54 -69 -128 -69 -222c0 -87 19 -160 57 -218c37 -58 93 -87 168 -87c35 0 68 5 101 15
c11 72 16 134 16 186c0 25 -4 52 -7 64l-3 9c7 3 20 5 39 5c63 0 85 -16 85 -73c0 -17 -4 -59 -12 -125s-12 -106 -12 -121c0 -3 1 -7 1 -8l-5 -5c-8 2 -20 3 -36 3c-17 0 -50 -2 -98 -7s-83 -7 -105 -7c-99 0 -175 33 -228 98s-80 145 -80 241zM351 -44c39 0 58 -31 58 -72
c0 -60 -37 -115 -104 -115c-25 0 -47 9 -55 17l-5 6l4 7c9 -5 19 -8 31 -8c27 0 54 21 54 48c0 10 -7 20 -20 29c-14 9 -21 21 -21 36c0 32 25 52 58 52z" />
    <glyph glyph-name="gcommaaccent" unicode="&#x123;" horiz-adv-x="516" 
d="M29 -112c0 44 31 62 91 79l6 -5c-8 -13 -12 -30 -12 -53c0 -55 28 -99 87 -99c67 0 124 57 124 154c0 8 -1 23 -2 44s-2 39 -2 54c0 18 1 35 2 51h-5c-36 -60 -94 -112 -161 -112c-76 0 -124 67 -124 179c0 91 27 169 81 234s121 98 201 98c13 0 35 -2 67 -6
c31 -4 60 -6 87 -7l3 -3c-18 -68 -32 -168 -41 -301c-1 -24 -4 -78 -6 -108c-1 -15 -3 -34 -5 -57c-5 -45 -11 -71 -22 -110c-28 -87 -83 -149 -201 -150c-55 0 -96 12 -125 36c-29 25 -43 52 -43 82zM198 65c25 0 53 21 84 64c30 42 48 82 55 119c7 35 13 92 19 171
c-3 31 -20 46 -52 46c-35 0 -66 -16 -92 -49s-44 -69 -55 -110s-17 -81 -17 -120c0 -71 22 -121 58 -121zM276 561c-39 0 -58 31 -58 72c0 60 37 115 104 115c25 0 47 -10 54 -18l6 -5l-4 -7c-9 5 -19 8 -31 8c-27 0 -54 -21 -54 -48c0 -10 7 -20 21 -29
c13 -9 20 -21 20 -36c0 -32 -25 -52 -58 -52z" />
    <glyph glyph-name="Hcircumflex" unicode="&#x124;" horiz-adv-x="765" 
d="M72 0c10 19 21 111 33 277c11 141 16 259 16 354l-2 70c19 6 37 9 53 9c41 0 71 -23 71 -59c0 -21 -4 -71 -11 -151c-4 -40 -7 -73 -9 -98c33 -3 84 -4 153 -4c61 0 122 1 183 4c7 115 10 202 10 263l-2 36c19 6 37 9 52 9c44 0 71 -23 71 -62c-1 -21 -4 -63 -10 -126
c-7 -63 -11 -105 -12 -127c-11 -160 -17 -277 -17 -351c0 -19 1 -33 2 -44c-19 -2 -42 -10 -66 -10c-37 0 -56 23 -56 69c0 29 4 78 11 145s12 112 13 135c-38 3 -92 4 -163 4c-57 0 -115 -1 -174 -4l-6 -100c-1 -17 -3 -45 -4 -86c-2 -41 -4 -72 -6 -95
c-4 -45 -26 -68 -66 -68c-3 0 -24 3 -64 10zM265 744c-15 0 -25 1 -31 4v8c28 15 55 36 80 61s43 45 54 62c11 16 20 30 27 43c8 2 15 3 22 3c32 0 54 -29 67 -62s48 -80 100 -107v-8c-6 -3 -16 -4 -31 -4c-22 0 -47 10 -76 29s-49 39 -60 58h-5c-13 -19 -36 -39 -67 -58
s-58 -29 -80 -29z" />
    <glyph glyph-name="hcircumflex" unicode="&#x125;" horiz-adv-x="588" 
d="M49 -8c3 22 9 67 18 135s15 121 20 159s9 86 14 143c4 57 6 109 6 154c0 58 -2 101 -6 129c50 0 82 -9 96 -26s21 -52 21 -104c0 -21 -2 -49 -5 -83c-4 -35 -8 -64 -11 -87l-6 -36h5c45 85 96 139 179 139c77 0 104 -48 104 -131c0 -32 -5 -81 -16 -148
s-16 -112 -16 -136c0 -29 10 -44 29 -44c29 0 63 31 79 58l11 19l7 -4c-1 -8 -2 -16 -17 -48c-8 -16 -17 -30 -26 -42c-20 -25 -58 -49 -101 -49c-52 0 -83 27 -83 79c0 14 5 58 15 133s15 128 15 161c0 60 -13 85 -45 85c-48 0 -91 -58 -123 -131
c-31 -72 -46 -154 -46 -245c0 -38 -6 -61 -19 -68c-13 -8 -46 -12 -99 -12zM21 743c-15 0 -25 1 -31 4v8c28 15 55 36 80 61s43 45 54 62c11 16 20 30 27 43c8 2 15 3 22 3c32 0 54 -29 67 -62s48 -80 100 -107v-8c-6 -3 -16 -4 -31 -4c-22 0 -47 10 -76 29s-49 39 -60 58
h-5c-13 -19 -36 -39 -67 -58s-58 -29 -80 -29z" />
    <glyph glyph-name="Hbar" unicode="&#x126;" horiz-adv-x="789" 
d="M83 0c10 19 21 111 33 277c8 121 13 200 14 238c-28 0 -48 -1 -61 -3c-1 11 -1 22 -1 34c0 29 9 43 26 43c10 -1 23 -2 38 -3v45l-2 70c19 6 37 9 53 9c41 0 71 -23 71 -59c0 -6 -1 -28 -4 -67h328c1 41 2 68 2 81l-2 36c19 6 37 9 52 9c44 0 71 -23 71 -62l-4 -64
c27 1 46 2 59 5c1 -14 1 -29 1 -45c0 -21 -5 -32 -16 -32c-14 1 -31 2 -51 3c-7 -69 -10 -109 -11 -120c-11 -160 -17 -277 -17 -351c0 -19 1 -33 2 -44c-19 -2 -42 -10 -66 -10c-37 0 -56 23 -56 69c0 29 4 78 11 145s12 112 13 135c-38 3 -92 4 -163 4
c-57 0 -115 -1 -174 -4l-6 -100c-1 -17 -3 -45 -4 -86c-2 -41 -4 -72 -6 -95c-4 -45 -26 -68 -66 -68c-3 0 -24 3 -64 10zM243 516l-9 -114c33 -3 84 -4 153 -4c61 0 122 1 183 4l6 114h-333z" />
    <glyph glyph-name="hbar" unicode="&#x127;" horiz-adv-x="589" 
d="M50 -8c3 29 11 89 23 180c11 91 20 169 27 236c6 66 10 130 11 191c-39 -1 -64 -3 -75 -4c-1 11 -1 22 -1 34c0 29 9 43 26 43c14 -1 30 -2 49 -3c-1 35 -4 64 -8 88c87 0 111 -22 116 -90h35c54 0 90 2 109 5c1 -14 2 -29 2 -45c0 -21 -6 -32 -17 -32
c-38 1 -81 2 -129 3c-1 -29 -3 -61 -6 -98c-4 -37 -7 -67 -10 -90l-5 -34h5c45 85 96 139 179 139c77 0 104 -48 104 -131c0 -32 -5 -81 -16 -148s-16 -112 -16 -136c0 -29 10 -44 29 -44c29 0 63 31 78 58l12 19l7 -4c-1 -8 -2 -16 -17 -48c-8 -16 -17 -30 -26 -42
c-20 -25 -58 -49 -101 -49c-52 0 -83 27 -83 79c0 14 5 58 15 133s15 128 15 161c0 60 -13 85 -45 85c-48 0 -91 -58 -123 -131c-31 -72 -46 -154 -46 -245c0 -38 -6 -61 -19 -68c-13 -8 -46 -12 -99 -12z" />
    <glyph glyph-name="Itilde" unicode="&#x128;" horiz-adv-x="316" 
d="M86 39c0 7 1 20 3 41c1 21 4 59 8 114s8 113 12 174c7 97 10 190 10 279l-1 54c19 6 37 9 54 9c48 0 68 -22 68 -77c0 -27 -5 -81 -12 -153c-4 -37 -7 -65 -9 -85c-10 -110 -15 -209 -15 -298c0 -21 1 -52 2 -95c-39 -7 -59 -10 -62 -10c-33 0 -58 19 -58 47zM9 787l-5 7
c15 58 56 87 124 87c25 0 54 -8 89 -23c35 -16 61 -24 78 -24c23 0 46 11 69 33l5 -7c-15 -58 -56 -87 -124 -87c-25 0 -55 8 -90 24c-35 15 -60 23 -77 23c-23 0 -46 -11 -69 -33z" />
    <glyph glyph-name="itilde" unicode="&#x129;" horiz-adv-x="296" 
d="M59 69c0 12 5 58 15 137s15 142 16 187c0 37 -5 77 -10 94l-3 13c22 7 41 10 57 10c40 0 63 -27 63 -74c0 -37 -6 -94 -18 -173c-13 -79 -19 -133 -19 -163c0 -29 10 -44 29 -44c29 0 63 31 79 58l11 19l7 -4c-1 -8 -2 -16 -17 -48c-8 -16 -17 -30 -26 -42
c-20 -25 -58 -49 -101 -49c-52 0 -83 27 -83 79zM-25 614l-5 7c15 58 56 87 124 87c25 0 54 -8 89 -23c35 -16 61 -24 78 -24c23 0 46 11 69 33l5 -7c-15 -58 -56 -87 -124 -87c-25 0 -55 8 -90 24c-35 15 -60 23 -77 23c-23 0 -46 -11 -69 -33z" />
    <glyph glyph-name="imacron" unicode="&#x12b;" horiz-adv-x="296" 
d="M59 69c0 12 5 58 15 137s15 142 16 187c0 37 -5 77 -10 94l-3 13c22 7 41 10 57 10c40 0 63 -27 63 -74c0 -37 -6 -94 -18 -173c-13 -79 -19 -133 -19 -163c0 -29 10 -44 29 -44c29 0 63 31 79 58l11 19l7 -4c-1 -8 -2 -16 -17 -48c-8 -16 -17 -30 -26 -42
c-20 -25 -58 -49 -101 -49c-52 0 -83 27 -83 79zM-10 613c-1 7 -1 14 -1 23c0 36 9 54 26 54c63 -3 127 -5 192 -5c54 0 90 2 109 5c1 -7 2 -17 2 -28c0 -33 -6 -49 -17 -49c-63 3 -128 4 -195 4c-59 0 -97 -1 -116 -4z" />
    <glyph glyph-name="Iogonek" unicode="&#x12e;" horiz-adv-x="318" 
d="M92 52c0 8 2 44 8 153c3 54 5 108 8 163c5 97 7 172 7 227l-3 106c19 6 37 9 52 9c44 0 72 -21 72 -62c0 -17 -4 -88 -13 -211s-14 -223 -14 -298c0 -56 2 -102 5 -137c-18 -17 -37 -40 -57 -69c-21 -28 -31 -52 -31 -73c0 -26 15 -39 46 -39c15 0 30 3 45 10l5 -4
c-13 -36 -56 -59 -97 -59c-47 0 -84 30 -84 82c0 49 38 96 113 142h-3c-39 0 -59 20 -59 60z" />
    <glyph glyph-name="iogonek" unicode="&#x12f;" horiz-adv-x="296" 
d="M59 69c0 12 5 58 15 137s15 142 16 187c0 37 -5 77 -10 94l-3 13c22 7 41 10 57 10c40 0 63 -27 63 -74c0 -37 -6 -94 -18 -173c-13 -79 -19 -133 -19 -163c0 -29 10 -44 29 -44c29 0 63 31 79 58l11 19l7 -4c-3 -11 -4 -25 -27 -65c-12 -21 -26 -37 -42 -49
c-71 -68 -107 -120 -107 -155c0 -26 15 -39 46 -39c15 0 30 3 45 10l5 -4c-13 -36 -56 -59 -97 -59c-47 0 -84 30 -84 82c0 48 36 95 109 140c-50 3 -75 30 -75 79zM157 597c-33 0 -65 30 -65 65s30 66 65 66s66 -31 66 -66s-31 -65 -66 -65z" />
    <glyph glyph-name="Idot" unicode="&#x130;" horiz-adv-x="316" 
d="M86 39c0 7 1 20 3 41c1 21 4 59 8 114s8 113 12 174c7 97 10 190 10 279l-1 54c19 6 37 9 54 9c48 0 68 -22 68 -77c0 -27 -5 -81 -12 -153c-4 -37 -7 -65 -9 -85c-10 -110 -15 -209 -15 -298c0 -21 1 -52 2 -95c-39 -7 -59 -10 -62 -10c-33 0 -58 19 -58 47zM231 790
c-25 -25 -65 -25 -90 0s-25 65 0 90s65 25 90 0s25 -65 0 -90z" />
    <glyph glyph-name="dotlessi" unicode="&#x131;" horiz-adv-x="296" 
d="M59 69c0 12 5 58 15 137s15 142 16 187c0 37 -5 77 -10 94l-3 13c22 7 41 10 57 10c40 0 63 -27 63 -74c0 -37 -6 -94 -18 -173c-13 -79 -19 -133 -19 -163c0 -29 10 -44 29 -44c29 0 63 31 79 58l11 19l7 -4c-1 -8 -2 -16 -17 -48c-8 -16 -17 -30 -26 -42
c-20 -25 -58 -49 -101 -49c-52 0 -83 27 -83 79z" />
    <glyph glyph-name="IJ" unicode="&#x132;" horiz-adv-x="622" 
d="M86 39c0 7 1 20 3 41c1 21 4 59 8 114s8 113 12 174c7 97 10 190 10 279l-1 54c19 6 37 9 54 9c48 0 68 -22 68 -77c0 -27 -5 -81 -12 -153c-4 -37 -7 -65 -9 -85c-10 -110 -15 -209 -15 -298c0 -21 1 -52 2 -95c-39 -7 -59 -10 -62 -10c-33 0 -58 19 -58 47zM354 -111
c19 54 35 158 49 311s21 292 21 418c0 43 -2 73 -3 78l-1 5c24 6 43 9 58 9c44 0 66 -24 66 -71c0 -38 -7 -143 -20 -314s-25 -285 -35 -340c-24 -137 -89 -195 -198 -195l-2 8c30 22 52 52 65 91z" />
    <glyph glyph-name="ij" unicode="&#x133;" horiz-adv-x="540" 
d="M59 69c0 12 5 58 15 137s15 142 16 187c0 37 -5 77 -10 94l-3 13c22 7 41 10 57 10c40 0 63 -27 63 -74c0 -37 -6 -94 -18 -173c-13 -79 -19 -133 -19 -163c0 -29 10 -44 29 -44c29 0 63 31 79 58l11 19l7 -4c-1 -8 -2 -16 -17 -48c-8 -16 -17 -30 -26 -42
c-20 -25 -58 -49 -101 -49c-52 0 -83 27 -83 79zM157 599c-33 0 -65 30 -65 65s30 66 65 66s66 -31 66 -66s-31 -65 -66 -65zM316 -46c10 51 20 117 31 200c9 76 14 152 14 227c0 48 -6 92 -10 107l-3 12c21 7 41 10 60 10c40 0 57 -21 57 -98c0 -47 -5 -117 -14 -212
s-19 -167 -30 -214c-29 -131 -96 -196 -201 -196l-2 8c65 41 83 83 98 156zM474 619c-27 -26 -65 -26 -91 0s-26 64 0 91s64 27 91 0s27 -65 0 -91z" />
    <glyph glyph-name="Jcircumflex" unicode="&#x134;" horiz-adv-x="319" 
d="M51 -111c19 54 35 158 49 311s21 292 21 418c0 43 -2 73 -3 78l-1 5c24 6 43 9 58 9c44 0 66 -24 66 -71c0 -38 -7 -143 -20 -314s-25 -285 -35 -340c-24 -137 -89 -195 -198 -195l-2 8c30 22 52 52 65 91zM36 744c-15 0 -25 1 -31 4v8c28 15 55 36 80 61s43 45 54 62
c11 16 20 30 27 43c8 2 15 3 22 3c32 0 54 -29 67 -62s48 -80 100 -107v-8c-6 -3 -16 -4 -31 -4c-22 0 -47 10 -76 29s-49 39 -60 58h-5c-13 -19 -36 -39 -67 -58s-58 -29 -80 -29z" />
    <glyph glyph-name="jcircumflex" unicode="&#x135;" horiz-adv-x="273" 
d="M46 -46c7 41 17 107 29 200c13 97 19 174 19 231c0 44 -5 87 -10 103l-3 12c21 7 41 10 59 10c41 0 61 -21 61 -96c0 -41 -6 -111 -17 -210c-12 -99 -23 -171 -33 -218c-29 -137 -93 -196 -198 -196l-2 8c64 40 82 83 95 156zM6 571c-15 0 -25 1 -31 4v8
c28 15 55 36 80 61s43 45 54 62c11 16 20 30 27 43c8 2 15 3 22 3c32 0 54 -29 67 -62s48 -80 100 -107v-8c-6 -3 -16 -4 -31 -4c-22 0 -47 10 -76 29s-49 39 -60 58h-5c-13 -19 -36 -39 -67 -58s-58 -29 -80 -29z" />
    <glyph glyph-name="Kcommaaccent" unicode="&#x136;" horiz-adv-x="632" 
d="M73 0c9 14 19 104 31 271s18 287 18 360l-2 70c18 6 32 9 43 9c44 0 80 -23 80 -59c0 -25 -5 -86 -12 -169c-4 -42 -7 -77 -9 -106h4c112 107 186 181 222 222s57 76 64 105c14 1 24 1 30 1c37 0 55 -9 55 -26c0 -20 -24 -54 -98 -122c-37 -35 -64 -59 -80 -73
c-16 -15 -49 -44 -99 -88v-5c5 -9 13 -20 22 -35s26 -41 51 -79c25 -39 50 -74 73 -105c23 -32 48 -63 75 -94s49 -52 67 -63v-7c-26 -9 -58 -13 -95 -13c-79 -2 -157 122 -208 218c-37 67 -66 122 -79 126l-7 2l-6 -101c-5 -85 -8 -146 -11 -181c-4 -45 -26 -68 -65 -68
c-3 0 -24 3 -64 10zM309 -44c39 0 58 -31 58 -72c0 -60 -37 -115 -104 -115c-25 0 -47 9 -55 17l-5 6l4 7c9 -5 19 -8 31 -8c27 0 54 21 54 48c0 10 -7 20 -20 29c-14 9 -21 21 -21 36c0 32 25 52 58 52z" />
    <glyph glyph-name="kcommaaccent" unicode="&#x137;" horiz-adv-x="525" 
d="M50 -8c4 35 11 88 20 158s16 126 21 168s9 92 14 150c4 58 6 110 6 157c0 52 -3 96 -9 132c49 0 81 -8 96 -25c14 -17 21 -48 21 -92c0 -59 -10 -174 -30 -347h10c62 26 104 48 126 65c21 17 32 35 32 54c0 31 -26 46 -46 46l-15 -1v10c29 27 61 41 95 41
c47 0 65 -35 65 -72c0 -65 -62 -104 -173 -140l-1 -8c14 -37 47 -89 100 -157c52 -68 89 -102 112 -102v-9c-15 -18 -38 -27 -69 -27c-73 -4 -136 79 -170 145c-12 21 -24 44 -35 69c-11 24 -19 39 -23 46l-12 1c-11 -94 -17 -158 -17 -193c0 -31 -7 -51 -21 -58
s-46 -11 -97 -11zM238 -44c39 0 58 -31 58 -72c0 -60 -37 -115 -104 -115c-25 0 -47 9 -54 17l-6 6l4 7c9 -5 19 -8 31 -8c27 0 54 21 54 48c0 10 -7 20 -20 29c-14 9 -21 21 -21 36c0 32 25 52 58 52z" />
    <glyph glyph-name="kgreenlandic" unicode="&#x138;" horiz-adv-x="519" 
d="M52 -8c3 25 8 67 17 126c8 59 15 111 20 156c5 44 7 84 7 119c0 37 -5 77 -10 94l-3 13c22 7 41 10 57 10c40 0 63 -27 63 -74c0 -21 -5 -75 -14 -163h9c121 52 181 100 181 143c0 48 -55 36 -69 16l-5 -5l-7 5s14 74 91 74c49 0 79 -36 79 -75c0 -31 -18 -60 -55 -88
c-37 -29 -81 -51 -131 -67l-1 -8c14 -36 46 -85 95 -146c49 -62 84 -93 107 -93v-9c-15 -18 -38 -27 -69 -27c-72 -4 -131 72 -163 132c-11 19 -22 41 -33 64s-18 37 -22 44l-12 1c-9 -86 -15 -144 -16 -173c-1 -32 -9 -51 -22 -58c-13 -8 -45 -11 -94 -11z" />
    <glyph glyph-name="Lacute" unicode="&#x139;" horiz-adv-x="528" 
d="M409 -5l-332 5c8 19 18 111 30 277c11 167 17 285 17 354l-2 70c18 6 32 9 43 9c47 0 80 -20 80 -57c0 -15 -7 -103 -20 -262c-13 -160 -21 -268 -24 -325l176 5c61 2 103 9 128 22c0 -43 -6 -71 -18 -82s-38 -17 -78 -16zM81 748v5c57 31 107 87 150 169
c43 0 64 -31 71 -43l2 -5c-10 -32 -37 -62 -80 -89s-81 -41 -113 -41c-15 0 -25 1 -30 4z" />
    <glyph glyph-name="lacute" unicode="&#x13a;" horiz-adv-x="296" 
d="M56 69c0 10 8 79 24 207c15 127 23 230 23 307c0 50 -3 93 -9 129c50 0 82 -9 96 -26s21 -52 21 -104c0 -32 -8 -117 -25 -254c-17 -138 -26 -214 -26 -228c0 -29 9 -44 26 -44c29 0 63 31 78 58l12 19l7 -4c-1 -8 -2 -16 -17 -48c-8 -16 -17 -30 -26 -42
c-20 -25 -58 -49 -101 -49c-52 0 -83 27 -83 79zM91 744c-15 0 -25 1 -30 4v5c57 31 107 87 150 169c43 0 64 -31 71 -43l2 -5c-10 -32 -37 -62 -80 -89s-81 -41 -113 -41z" />
    <glyph glyph-name="Lcommaaccent" unicode="&#x13b;" horiz-adv-x="528" 
d="M409 -5l-332 5c8 19 18 111 30 277c11 167 17 285 17 354l-2 70c18 6 32 9 43 9c47 0 80 -20 80 -57c0 -15 -7 -103 -20 -262c-13 -160 -21 -268 -24 -325l176 5c61 2 103 9 128 22c0 -43 -6 -71 -18 -82s-38 -17 -78 -16zM289 -47c39 0 58 -31 58 -72
c0 -60 -37 -115 -104 -115c-25 0 -47 10 -55 18l-5 5l4 7c9 -5 19 -8 31 -8c27 0 54 21 54 48c0 10 -7 20 -20 29c-14 9 -21 21 -21 36c0 32 25 52 58 52z" />
    <glyph glyph-name="lcommaaccent" unicode="&#x13c;" horiz-adv-x="296" 
d="M56 69c0 11 8 84 25 219c16 135 24 248 24 340c0 50 -3 93 -9 129c50 0 82 -9 96 -26s21 -52 21 -104c0 -47 -9 -143 -26 -288c-18 -145 -27 -224 -27 -239c0 -29 9 -44 26 -44c29 0 63 31 78 58l12 19l7 -4c-1 -8 -2 -16 -17 -48c-8 -16 -17 -30 -26 -42
c-20 -25 -58 -49 -101 -49c-52 0 -83 27 -83 79zM112 -44c39 0 58 -31 58 -72c0 -60 -37 -115 -104 -115c-25 0 -47 9 -54 17l-6 6l4 7c9 -5 19 -8 31 -8c27 0 54 21 54 48c0 10 -7 20 -20 29c-14 9 -21 21 -21 36c0 32 25 52 58 52z" />
    <glyph glyph-name="Lcaron" unicode="&#x13d;" horiz-adv-x="528" 
d="M409 -5l-332 5c8 19 18 111 30 277c11 167 17 285 17 354l-2 70c18 6 32 9 43 9c47 0 80 -20 80 -57c0 -15 -7 -103 -20 -262c-13 -160 -21 -268 -24 -325l176 5c61 2 103 9 128 22c0 -43 -6 -71 -18 -82s-38 -17 -78 -16zM289 -47c39 0 58 -31 58 -72
c0 -60 -37 -115 -104 -115c-25 0 -47 10 -55 18l-5 5l4 7c9 -5 19 -8 31 -8c27 0 54 21 54 48c0 10 -7 20 -20 29c-14 9 -21 21 -21 36c0 32 25 52 58 52z" />
    <glyph glyph-name="lcaron" unicode="&#x13e;" horiz-adv-x="296" 
d="M56 69c0 11 8 84 25 219c16 135 24 248 24 340c0 50 -3 93 -9 129c50 0 82 -9 96 -26s21 -52 21 -104c0 -47 -9 -143 -26 -288c-18 -145 -27 -224 -27 -239c0 -29 9 -44 26 -44c29 0 63 31 78 58l12 19l7 -4c-1 -8 -2 -16 -17 -48c-8 -16 -17 -30 -26 -42
c-20 -25 -58 -49 -101 -49c-52 0 -83 27 -83 79zM357 756c39 0 58 -31 58 -72c0 -60 -37 -115 -104 -115c-25 0 -47 9 -55 17l-5 6l4 7c9 -5 19 -8 31 -8c27 0 54 21 54 48c0 10 -7 20 -20 29c-14 9 -21 21 -21 36c0 32 25 52 58 52z" />
    <glyph glyph-name="Ldot" unicode="&#x13f;" horiz-adv-x="528" 
d="M409 -5l-332 5c8 19 18 111 30 277c11 167 17 285 17 354l-2 70c18 6 32 9 43 9c47 0 80 -20 80 -57c0 -15 -7 -103 -20 -262c-13 -160 -21 -268 -24 -325l176 5c61 2 103 9 128 22c0 -43 -6 -71 -18 -82s-38 -17 -78 -16zM429 329c-36 0 -67 31 -67 67c0 37 31 68 67 68
c37 0 68 -31 68 -68c0 -36 -31 -67 -68 -67z" />
    <glyph glyph-name="ldot" unicode="&#x140;" horiz-adv-x="392" 
d="M56 69c0 11 8 84 25 219c16 135 24 248 24 340c0 50 -3 93 -9 129c50 0 82 -9 96 -26s21 -52 21 -104c0 -47 -9 -143 -26 -288c-18 -145 -27 -224 -27 -239c0 -29 9 -44 26 -44c29 0 63 31 78 58l12 19l7 -4c-1 -8 -2 -16 -17 -48c-8 -16 -17 -30 -26 -42
c-20 -25 -58 -49 -101 -49c-52 0 -83 27 -83 79zM338 327c-36 0 -67 31 -67 67c0 37 31 68 67 68c37 0 68 -31 68 -68c0 -36 -31 -67 -68 -67z" />
    <glyph glyph-name="Lslash" unicode="&#x141;" horiz-adv-x="527" 
d="M408 -5l-332 5c10 21 21 128 33 320c-45 -23 -71 -38 -79 -43c-15 25 -22 42 -22 49c0 9 7 17 22 24l83 39c7 125 10 205 10 242l-2 70c18 6 32 9 43 9c45 0 81 -25 81 -62c0 -13 -6 -81 -19 -206l41 20c57 29 92 47 103 55c15 -23 23 -40 23 -49c0 -15 -35 -35 -110 -67
c-37 -17 -58 -26 -63 -28c-5 -67 -11 -169 -20 -307l176 5c61 2 103 9 128 22c0 -43 -6 -71 -18 -82s-38 -17 -78 -16z" />
    <glyph glyph-name="lslash" unicode="&#x142;" horiz-adv-x="295" 
d="M56 69c0 25 6 78 18 169c6 45 11 85 14 120c-17 -9 -35 -20 -54 -32c-6 7 -11 15 -15 24c-5 10 -8 18 -8 25c0 9 7 17 22 24c34 16 55 26 62 29c7 72 10 139 10 200c0 50 -3 93 -9 129c50 0 82 -9 96 -26s21 -52 21 -104c0 -27 -4 -77 -11 -149c25 12 48 25 68 39
c12 -15 23 -36 23 -49c0 -9 -7 -17 -22 -24c-29 -15 -54 -27 -76 -37c-23 -193 -35 -295 -35 -307c0 -29 9 -44 26 -44c29 0 63 31 78 58l12 19l7 -4c-1 -8 -2 -16 -17 -48c-8 -16 -17 -30 -26 -42c-20 -25 -58 -49 -101 -49c-52 0 -83 27 -83 79z" />
    <glyph glyph-name="Nacute" unicode="&#x143;" horiz-adv-x="728" 
d="M77 -2l-6 3c12 18 24 110 35 276c11 161 16 279 16 354l-2 69c16 5 32 8 49 8c21 0 34 -6 40 -17c9 -18 39 -64 92 -139l168 -242c53 -78 82 -122 86 -133l4 4c1 45 4 121 11 226s10 187 10 245l-2 49c11 6 22 9 35 9c32 0 40 -13 40 -41c0 -19 -7 -113 -22 -282
s-22 -286 -22 -351c0 -13 1 -25 2 -36c-13 -4 -27 -6 -40 -6c-19 0 -33 9 -43 27c-17 32 -49 80 -94 144l-171 245c-51 73 -78 117 -80 131l-4 -4c-3 -49 -8 -127 -13 -233c-5 -107 -10 -188 -14 -245s-8 -68 -39 -68c-12 0 -28 4 -36 7zM279 748v5c57 31 107 87 150 169
c43 0 64 -31 71 -43l2 -5c-10 -32 -37 -62 -80 -89s-81 -41 -113 -41c-15 0 -25 1 -30 4z" />
    <glyph glyph-name="nacute" unicode="&#x144;" horiz-adv-x="585" 
d="M58 -8c0 31 6 96 19 197c12 101 18 169 18 204c0 37 -6 77 -10 94l-3 13c22 7 41 10 57 10c40 0 63 -27 63 -74c0 -17 -3 -40 -6 -52l-3 -8h5c45 85 96 138 179 138c77 0 104 -47 104 -130c0 -32 -5 -81 -16 -148s-16 -112 -16 -136c0 -29 10 -44 29 -44
c29 0 63 31 78 58l12 19l7 -4c-1 -8 -2 -16 -17 -48c-8 -16 -17 -30 -26 -42c-20 -25 -58 -49 -101 -49c-52 0 -83 27 -83 79c0 14 5 58 15 133s15 128 15 161c0 60 -13 85 -45 85c-48 0 -91 -58 -123 -131c-29 -69 -44 -151 -44 -245c0 -39 -5 -62 -16 -69s-41 -11 -92 -11
zM204 574v5c57 31 107 87 150 169c32 0 58 -20 66 -36l7 -12c-10 -32 -37 -62 -80 -89s-81 -41 -113 -41c-15 0 -25 1 -30 4z" />
    <glyph glyph-name="Ncommaaccent" unicode="&#x145;" horiz-adv-x="728" 
d="M77 -2l-6 3c12 18 24 110 35 276c11 161 16 279 16 354l-2 69c16 5 32 8 49 8c21 0 34 -6 40 -17c9 -18 39 -64 92 -139l168 -242c53 -78 82 -122 86 -133l4 4c1 45 4 121 11 226s10 187 10 245l-2 49c11 6 22 9 35 9c32 0 40 -13 40 -41c0 -19 -7 -113 -22 -282
s-22 -286 -22 -351c0 -13 1 -25 2 -36c-13 -4 -27 -6 -40 -6c-19 0 -33 9 -43 27c-17 32 -49 80 -94 144l-171 245c-51 73 -78 117 -80 131l-4 -4c-3 -49 -8 -127 -13 -233c-5 -107 -10 -188 -14 -245s-8 -68 -39 -68c-12 0 -28 4 -36 7zM345 -44c39 0 58 -31 58 -72
c0 -60 -37 -115 -104 -115c-25 0 -47 9 -55 17l-5 6l4 7c9 -5 19 -8 31 -8c27 0 54 21 54 48c0 10 -7 20 -20 29c-14 9 -21 21 -21 36c0 32 25 52 58 52z" />
    <glyph glyph-name="ncommaaccent" unicode="&#x146;" horiz-adv-x="585" 
d="M58 -8c0 31 6 96 19 197c12 101 18 169 18 204c0 37 -6 77 -10 94l-3 13c22 7 41 10 57 10c40 0 63 -27 63 -74c0 -17 -3 -40 -6 -52l-3 -8h5c45 85 96 138 179 138c77 0 104 -47 104 -130c0 -32 -5 -81 -16 -148s-16 -112 -16 -136c0 -29 10 -44 29 -44
c29 0 63 31 78 58l12 19l7 -4c-1 -8 -2 -16 -17 -48c-8 -16 -17 -30 -26 -42c-20 -25 -58 -49 -101 -49c-52 0 -83 27 -83 79c0 14 5 58 15 133s15 128 15 161c0 60 -13 85 -45 85c-48 0 -91 -58 -123 -131c-29 -69 -44 -151 -44 -245c0 -39 -5 -62 -16 -69s-41 -11 -92 -11
zM263 -44c39 0 58 -31 58 -72c0 -60 -37 -115 -104 -115c-25 0 -47 9 -55 17l-5 6l4 7c9 -5 19 -8 31 -8c27 0 54 21 54 48c0 10 -7 20 -20 29c-14 9 -21 21 -21 36c0 32 25 52 58 52z" />
    <glyph glyph-name="Ncaron" unicode="&#x147;" horiz-adv-x="728" 
d="M77 -2l-6 3c12 18 24 110 35 276c11 161 16 279 16 354l-2 69c16 5 32 8 49 8c21 0 34 -6 40 -17c9 -18 39 -64 92 -139l168 -242c53 -78 82 -122 86 -133l4 4c1 45 4 121 11 226s10 187 10 245l-2 49c11 6 22 9 35 9c32 0 40 -13 40 -41c0 -19 -7 -113 -22 -282
s-22 -286 -22 -351c0 -13 1 -25 2 -36c-13 -4 -27 -6 -40 -6c-19 0 -33 9 -43 27c-17 32 -49 80 -94 144l-171 245c-51 73 -78 117 -80 131l-4 -4c-3 -49 -8 -127 -13 -233c-5 -107 -10 -188 -14 -245s-8 -68 -39 -68c-12 0 -28 4 -36 7zM361 744c-27 74 -68 129 -125 166v8
c6 3 16 4 30 4c21 0 45 -10 72 -29c26 -19 44 -39 54 -58h5c12 19 33 39 63 58s55 29 76 29c14 0 24 -1 30 -4v-8c-53 -27 -94 -74 -110 -107c-17 -33 -42 -62 -73 -62c-7 0 -14 1 -22 3z" />
    <glyph glyph-name="ncaron" unicode="&#x148;" horiz-adv-x="585" 
d="M58 -8c0 31 6 96 19 197c12 101 18 169 18 204c0 37 -6 77 -10 94l-3 13c22 7 41 10 57 10c40 0 63 -27 63 -74c0 -17 -3 -40 -6 -52l-3 -8h5c45 85 96 138 179 138c77 0 104 -47 104 -130c0 -32 -5 -81 -16 -148s-16 -112 -16 -136c0 -29 10 -44 29 -44
c29 0 63 31 78 58l12 19l7 -4c-1 -8 -2 -16 -17 -48c-8 -16 -17 -30 -26 -42c-20 -25 -58 -49 -101 -49c-52 0 -83 27 -83 79c0 14 5 58 15 133s15 128 15 161c0 60 -13 85 -45 85c-48 0 -91 -58 -123 -131c-29 -69 -44 -151 -44 -245c0 -39 -5 -62 -16 -69s-41 -11 -92 -11
zM286 570c-27 74 -68 129 -125 166v8c6 3 16 4 30 4c21 0 45 -10 72 -29c26 -19 44 -39 54 -58h5c12 19 33 39 63 58s55 29 76 29c14 0 24 -1 30 -4v-8c-53 -27 -94 -74 -110 -107c-17 -33 -42 -62 -73 -62c-7 0 -14 1 -22 3z" />
    <glyph glyph-name="napostrophe" unicode="&#x149;" horiz-adv-x="585" 
d="M58 -8c0 31 6 96 19 197c12 101 18 169 18 204c0 37 -6 77 -10 94l-3 13c22 7 41 10 57 10c40 0 63 -27 63 -74c0 -17 -3 -40 -6 -52l-3 -8h5c45 85 96 138 179 138c77 0 104 -47 104 -130c0 -32 -5 -81 -16 -148s-16 -112 -16 -136c0 -29 10 -44 29 -44
c29 0 63 31 78 58l12 19l7 -4c-1 -8 -2 -16 -17 -48c-8 -16 -17 -30 -26 -42c-20 -25 -58 -49 -101 -49c-52 0 -83 27 -83 79c0 14 5 58 15 133s15 128 15 161c0 60 -13 85 -45 85c-48 0 -91 -58 -123 -131c-29 -69 -44 -151 -44 -245c0 -39 -5 -62 -16 -69s-41 -11 -92 -11
zM263 -44c39 0 58 -31 58 -72c0 -60 -37 -115 -104 -115c-25 0 -47 9 -55 17l-5 6l4 7c9 -5 19 -8 31 -8c27 0 54 21 54 48c0 10 -7 20 -20 29c-14 9 -21 21 -21 36c0 32 25 52 58 52z" />
    <glyph glyph-name="Eng" unicode="&#x14a;" horiz-adv-x="727" 
d="M83 -2l-6 3c11 18 21 110 30 276c7 133 10 239 10 318c0 78 -3 98 -3 103l-1 2c16 5 32 8 49 8c21 0 34 -6 41 -17c19 -33 50 -79 94 -139l172 -237c53 -72 82 -116 88 -133l4 4c0 30 2 104 7 222c4 118 6 190 6 216l-3 77c11 6 22 9 35 9c33 0 41 -13 41 -42
c0 -41 -5 -136 -16 -283s-17 -263 -17 -348c0 -124 -66 -192 -146 -197l-2 5c16 12 31 34 46 66s22 59 22 82c0 17 -7 37 -20 60c-15 25 -40 62 -77 112l-176 240c-53 73 -81 116 -83 131l-4 -4c-3 -49 -5 -126 -8 -230c-3 -105 -6 -186 -9 -243s-6 -68 -38 -68
c-12 0 -28 4 -36 7z" />
    <glyph glyph-name="eng" unicode="&#x14b;" horiz-adv-x="552" 
d="M58 -8c0 31 6 96 19 197c12 101 18 169 18 204c0 37 -6 77 -10 94l-3 13c22 7 41 10 57 10c40 0 63 -27 63 -74c0 -17 -3 -40 -6 -52l-3 -8h5c45 85 96 139 179 139c79 0 104 -47 104 -136c0 -45 -5 -111 -16 -196c-11 -86 -21 -152 -30 -197
c-29 -137 -93 -196 -198 -196l-2 8c64 40 83 84 98 156c30 150 45 281 45 393c0 77 -11 101 -43 101c-49 0 -94 -58 -125 -131c-29 -71 -44 -152 -44 -245c0 -39 -5 -62 -16 -69s-41 -11 -92 -11z" />
    <glyph glyph-name="Omacron" unicode="&#x14c;" horiz-adv-x="789" 
d="M183 330c0 -150 64 -290 201 -290c138 -2 235 181 231 346c3 141 -65 273 -202 274c-46 0 -87 -17 -123 -50s-63 -75 -80 -124c-18 -50 -27 -102 -27 -156zM60 311c0 139 54 265 167 345c56 39 121 59 195 59c101 0 179 -30 234 -90s82 -134 82 -221
c0 -141 -56 -274 -168 -357c-57 -41 -121 -62 -194 -62c-101 0 -178 31 -233 94s-83 140 -83 232zM265 786c-1 7 -1 14 -1 23c0 36 9 54 26 54c63 -3 127 -5 192 -5c54 0 90 2 109 5c1 -7 2 -17 2 -28c0 -33 -6 -49 -17 -49c-63 3 -128 4 -195 4c-59 0 -97 -1 -116 -4z" />
    <glyph glyph-name="omacron" unicode="&#x14d;" 
d="M255 31c44 0 79 26 106 79c26 53 39 112 39 178c0 104 -35 181 -110 181c-31 0 -58 -14 -80 -41c-23 -28 -38 -60 -47 -97s-14 -76 -14 -117c0 -107 35 -183 106 -183zM35 227c0 96 36 187 116 244c40 29 86 43 139 43c69 0 124 -23 164 -68s60 -102 60 -169
c0 -76 -24 -143 -71 -202s-110 -89 -188 -89c-68 0 -122 23 -161 69c-39 45 -59 103 -59 172zM142 612c-1 7 -1 14 -1 23c0 36 9 54 26 54c63 -3 127 -5 192 -5c54 0 90 2 109 5c1 -7 2 -17 2 -28c0 -33 -6 -49 -17 -49c-63 3 -128 4 -195 4c-59 0 -97 -1 -116 -4z" />
    <glyph glyph-name="Obreve" unicode="&#x14e;" horiz-adv-x="789" 
d="M183 330c0 -150 64 -290 201 -290c138 -2 235 181 231 346c3 141 -65 273 -202 274c-46 0 -87 -17 -123 -50s-63 -75 -80 -124c-18 -50 -27 -102 -27 -156zM60 311c0 139 54 265 167 345c56 39 121 59 195 59c101 0 179 -30 234 -90s82 -134 82 -221
c0 -141 -56 -274 -168 -357c-57 -41 -121 -62 -194 -62c-101 0 -178 31 -233 94s-83 140 -83 232zM422 741c-81 0 -146 52 -146 141c0 27 10 35 35 35l38 -5c-1 -16 -1 -26 -1 -29c0 -47 26 -85 78 -85c51 0 88 43 91 94l1 20c14 3 26 5 36 5c23 0 35 -7 35 -21
c0 -49 -17 -87 -51 -114s-73 -41 -116 -41z" />
    <glyph glyph-name="obreve" unicode="&#x14f;" 
d="M255 31c44 0 79 26 106 79c26 53 39 112 39 178c0 104 -35 181 -110 181c-31 0 -58 -14 -80 -41c-23 -28 -38 -60 -47 -97s-14 -76 -14 -117c0 -107 35 -183 106 -183zM35 227c0 96 36 187 116 244c40 29 86 43 139 43c69 0 124 -23 164 -68s60 -102 60 -169
c0 -76 -24 -143 -71 -202s-110 -89 -188 -89c-68 0 -122 23 -161 69c-39 45 -59 103 -59 172zM299 567c-81 0 -146 52 -146 141c0 27 10 35 35 35l38 -5c-1 -16 -1 -26 -1 -29c0 -47 26 -85 78 -85c51 0 88 43 91 94l1 20c14 3 26 5 36 5c23 0 35 -7 35 -21
c0 -49 -17 -87 -51 -114s-73 -41 -116 -41z" />
    <glyph glyph-name="Ohungarumlaut" unicode="&#x150;" horiz-adv-x="789" 
d="M183 330c0 -150 64 -290 201 -290c138 -2 235 181 231 346c3 141 -65 273 -202 274c-46 0 -87 -17 -123 -50s-63 -75 -80 -124c-18 -50 -27 -102 -27 -156zM60 311c0 139 54 265 167 345c56 39 121 59 195 59c101 0 179 -30 234 -90s82 -134 82 -221
c0 -141 -56 -274 -168 -357c-57 -41 -121 -62 -194 -62c-101 0 -178 31 -233 94s-83 140 -83 232zM413 748v5c57 31 107 87 150 169c43 0 64 -31 71 -43l2 -5c-10 -32 -37 -62 -80 -89s-81 -41 -113 -41c-15 0 -25 1 -30 4zM260 744c-15 0 -24 1 -29 4v5
c57 31 106 87 149 169c42 0 65 -31 70 -43l3 -5c-10 -32 -37 -62 -80 -89s-81 -41 -113 -41z" />
    <glyph glyph-name="ohungarumlaut" unicode="&#x151;" 
d="M255 31c44 0 79 26 106 79c26 53 39 112 39 178c0 104 -35 181 -110 181c-31 0 -58 -14 -80 -41c-23 -28 -38 -60 -47 -97s-14 -76 -14 -117c0 -107 35 -183 106 -183zM35 227c0 96 36 187 116 244c40 29 86 43 139 43c69 0 124 -23 164 -68s60 -102 60 -169
c0 -76 -24 -143 -71 -202s-110 -89 -188 -89c-68 0 -122 23 -161 69c-39 45 -59 103 -59 172zM290 574v5c57 31 107 87 150 169c32 0 58 -20 66 -36l7 -12c-10 -32 -37 -62 -80 -89s-81 -41 -113 -41c-15 0 -25 1 -30 4zM137 570c-15 0 -24 1 -29 4v5c57 31 106 87 149 169
c43 0 64 -31 71 -43l2 -5c-10 -32 -37 -62 -80 -89s-81 -41 -113 -41z" />
    <glyph glyph-name="OE" unicode="&#x152;" horiz-adv-x="1061" 
d="M60 323c0 132 53 256 165 334c56 39 121 58 194 58c82 0 149 -27 202 -82h5l-3 67h175c85 0 162 4 190 8l20 2c-6 -35 -14 -58 -24 -68c-11 -10 -36 -15 -76 -15c-48 0 -109 7 -138 12l-23 4l-15 -246h147c24 0 44 4 51 7l5 3c-5 -60 -14 -74 -70 -74l-137 6
c-4 -67 -7 -127 -8 -182s-2 -85 -2 -91l174 5c62 2 105 9 128 22c0 -44 -5 -71 -16 -82c-11 -12 -37 -17 -78 -16l-323 5l7 81l1 11h-5c-64 -73 -128 -107 -227 -107s-177 33 -234 98s-85 145 -85 240zM183 332c-4 -150 77 -293 205 -292c47 0 88 17 125 52
c36 35 63 77 80 128s26 104 26 159c0 78 -18 144 -53 199c-36 55 -86 82 -150 82c-49 0 -91 -17 -127 -50c-37 -33 -63 -74 -80 -123s-26 -100 -26 -155z" />
    <glyph glyph-name="oe" unicode="&#x153;" horiz-adv-x="819" 
d="M35 227c-5 139 93 288 252 287c78 0 135 -35 172 -104h5c52 69 114 104 186 104c81 0 131 -50 131 -115c0 -68 -39 -116 -100 -140s-115 -32 -182 -35c1 -95 48 -165 123 -165c49 0 98 31 118 55l14 18l8 -3c-1 -8 -3 -17 -19 -49c-9 -17 -19 -31 -30 -44
c-24 -25 -72 -50 -128 -50c-69 0 -122 30 -157 90h-5c-45 -60 -102 -90 -171 -90c-67 0 -119 23 -158 69c-39 45 -59 103 -59 172zM252 31c44 0 79 26 106 79c26 53 39 112 39 178c0 104 -35 181 -110 181c-31 0 -58 -14 -80 -41c-23 -28 -38 -60 -47 -97s-14 -76 -14 -117
c0 -107 35 -183 106 -183zM501 263c100 4 174 43 174 136c0 36 -20 69 -44 69c-29 0 -57 -21 -83 -62c-26 -42 -42 -90 -47 -143z" />
    <glyph glyph-name="Racute" unicode="&#x154;" horiz-adv-x="634" 
d="M73 0l1 4c3 7 7 31 12 68c5 36 12 112 19 205c12 170 18 284 18 342l-2 83c25 -1 50 -2 76 -2h113c155 0 239 -71 239 -174c0 -67 -28 -123 -63 -151s-72 -47 -96 -52l-19 -4v-5c11 -19 26 -42 45 -71c18 -29 48 -70 91 -125c42 -55 76 -89 102 -103v-8
c-29 -9 -61 -13 -95 -13c-29 0 -59 15 -89 44s-55 61 -74 97c-20 35 -40 71 -61 107s-38 58 -49 67l-24 5c-3 -69 -7 -155 -14 -256c-3 -45 -25 -68 -66 -68c-5 0 -26 3 -64 10zM220 365c9 0 33 -1 42 -1c107 0 176 34 176 145c0 83 -51 138 -164 138h-32
c-3 -33 -8 -87 -13 -162s-8 -115 -9 -120zM212 748v5c57 31 107 87 150 169c32 0 58 -20 66 -36l7 -12c-10 -32 -37 -62 -80 -89s-81 -41 -113 -41c-15 0 -25 1 -30 4z" />
    <glyph glyph-name="racute" unicode="&#x155;" horiz-adv-x="409" 
d="M59 -8c0 31 6 96 19 197c12 101 18 169 18 204c0 37 -5 77 -10 94l-3 13c22 7 41 10 57 10c40 0 63 -27 63 -74c0 -17 -4 -40 -7 -52l-2 -8h5c44 89 95 134 154 134c40 0 57 -22 57 -49c0 -23 -8 -44 -24 -61l-5 -2c-23 19 -46 28 -67 28c-37 0 -72 -36 -103 -109
c-29 -68 -44 -150 -44 -245c0 -39 -5 -62 -16 -69s-41 -11 -92 -11zM132 575v5c57 31 107 87 150 169c32 0 58 -20 66 -36l7 -12c-10 -32 -37 -62 -80 -89s-81 -41 -113 -41c-15 0 -25 1 -30 4z" />
    <glyph glyph-name="Rcommaaccent" unicode="&#x156;" horiz-adv-x="634" 
d="M73 0l1 4c3 7 7 31 12 68c5 36 12 112 19 205c12 170 18 284 18 342l-2 83c25 -1 50 -2 76 -2h113c155 0 239 -71 239 -174c0 -67 -28 -123 -63 -151s-72 -47 -96 -52l-19 -4v-5c11 -19 26 -42 45 -71c18 -29 48 -70 91 -125c42 -55 76 -89 102 -103v-8
c-29 -9 -61 -13 -95 -13c-29 0 -59 15 -89 44s-55 61 -74 97c-20 35 -40 71 -61 107s-38 58 -49 67l-24 5c-3 -69 -7 -155 -14 -256c-3 -45 -25 -68 -66 -68c-5 0 -26 3 -64 10zM220 365c9 0 33 -1 42 -1c107 0 176 34 176 145c0 83 -51 138 -164 138h-32
c-3 -33 -8 -87 -13 -162s-8 -115 -9 -120zM304 -44c39 0 58 -31 58 -72c0 -60 -37 -115 -104 -115c-25 0 -47 9 -54 17l-6 6l4 7c9 -5 19 -8 31 -8c27 0 54 21 54 48c0 10 -7 20 -20 29c-14 9 -21 21 -21 36c0 32 25 52 58 52z" />
    <glyph glyph-name="rcommaaccent" unicode="&#x157;" horiz-adv-x="409" 
d="M59 -8c0 31 6 96 19 197c12 101 18 169 18 204c0 37 -5 77 -10 94l-3 13c22 7 41 10 57 10c40 0 63 -27 63 -74c0 -17 -4 -40 -7 -52l-2 -8h5c44 89 95 134 154 134c40 0 57 -22 57 -49c0 -23 -8 -44 -24 -61l-5 -2c-23 19 -46 28 -67 28c-37 0 -72 -36 -103 -109
c-29 -68 -44 -150 -44 -245c0 -39 -5 -62 -16 -69s-41 -11 -92 -11zM104 -44c39 0 58 -31 58 -72c0 -60 -37 -115 -104 -115c-25 0 -47 9 -54 17l-6 6l4 7c9 -5 19 -8 31 -8c27 0 54 21 54 48c0 10 -7 20 -20 29c-14 9 -21 21 -21 36c0 32 25 52 58 52z" />
    <glyph glyph-name="Rcaron" unicode="&#x158;" horiz-adv-x="634" 
d="M73 0l1 4c3 7 7 31 12 68c5 36 12 112 19 205c12 170 18 284 18 342l-2 83c25 -1 50 -2 76 -2h113c155 0 239 -71 239 -174c0 -67 -28 -123 -63 -151s-72 -47 -96 -52l-19 -4v-5c11 -19 26 -42 45 -71c18 -29 48 -70 91 -125c42 -55 76 -89 102 -103v-8
c-29 -9 -61 -13 -95 -13c-29 0 -59 15 -89 44s-55 61 -74 97c-20 35 -40 71 -61 107s-38 58 -49 67l-24 5c-3 -69 -7 -155 -14 -256c-3 -45 -25 -68 -66 -68c-5 0 -26 3 -64 10zM220 365c9 0 33 -1 42 -1c107 0 176 34 176 145c0 83 -51 138 -164 138h-32
c-3 -33 -8 -87 -13 -162s-8 -115 -9 -120zM294 744c-27 74 -68 129 -125 166v8c6 3 16 4 30 4c21 0 45 -10 72 -29c26 -19 44 -39 54 -58h5c12 19 33 39 63 58s55 29 76 29c14 0 24 -1 30 -4v-8c-53 -27 -94 -74 -110 -107c-17 -33 -42 -62 -73 -62c-7 0 -14 1 -22 3z" />
    <glyph glyph-name="rcaron" unicode="&#x159;" horiz-adv-x="409" 
d="M59 -8c0 31 6 96 19 197c12 101 18 169 18 204c0 37 -5 77 -10 94l-3 13c22 7 41 10 57 10c40 0 63 -27 63 -74c0 -17 -4 -40 -7 -52l-2 -8h5c44 89 95 134 154 134c40 0 57 -22 57 -49c0 -23 -8 -44 -24 -61l-5 -2c-23 19 -46 28 -67 28c-37 0 -72 -36 -103 -109
c-29 -68 -44 -150 -44 -245c0 -39 -5 -62 -16 -69s-41 -11 -92 -11zM214 571c-27 74 -68 129 -125 166v8c6 3 16 4 30 4c21 0 45 -10 72 -29c26 -19 44 -39 54 -58h5c12 19 33 39 63 58s55 29 76 29c14 0 24 -1 30 -4v-8c-53 -27 -94 -74 -110 -107c-17 -33 -42 -62 -73 -62
c-7 0 -14 1 -22 3z" />
    <glyph glyph-name="Sacute" unicode="&#x15a;" horiz-adv-x="568" 
d="M38 76c0 24 14 48 42 71h7c3 -5 6 -12 27 -36c11 -12 22 -22 35 -31c25 -18 71 -36 118 -36c88 0 132 52 132 112c0 163 -316 143 -316 350c0 63 25 114 75 152c49 38 106 57 169 57c36 0 74 -4 118 -13s75 -31 75 -59c0 -23 -19 -60 -44 -77h-7c0 2 -20 32 -58 62
c-23 16 -60 33 -96 33c-34 0 -63 -11 -86 -33c-24 -23 -36 -50 -36 -81c0 -90 114 -128 205 -175c62 -32 111 -90 111 -169c0 -68 -26 -121 -77 -160s-111 -58 -179 -58c-47 0 -95 8 -143 25c-48 16 -72 38 -72 66zM199 748v5c57 31 107 87 150 169c43 0 64 -31 71 -43l2 -5
c-10 -32 -37 -62 -80 -89s-81 -41 -113 -41c-15 0 -25 1 -30 4z" />
    <glyph glyph-name="sacute" unicode="&#x15b;" horiz-adv-x="407" 
d="M15 57c0 19 11 42 19 53l7 8h5c4 -4 7 -10 27 -30c10 -10 20 -19 31 -26c20 -15 52 -30 80 -30c48 0 79 28 79 71c0 110 -207 106 -207 261c0 93 78 150 183 150c86 0 129 -18 129 -55c0 -19 -11 -41 -22 -52l-7 -8h-5c-8 11 -17 25 -56 50c-20 13 -39 19 -58 19
c-43 0 -77 -22 -77 -66c0 -109 209 -101 209 -258c0 -49 -18 -88 -54 -116s-78 -42 -127 -42c-47 0 -91 5 -128 28c-19 11 -28 26 -28 43zM109 574v5c57 31 107 87 150 169c43 0 64 -31 71 -43l2 -5c-10 -32 -37 -62 -80 -89s-81 -41 -113 -41c-15 0 -25 1 -30 4z" />
    <glyph glyph-name="Scircumflex" unicode="&#x15c;" horiz-adv-x="568" 
d="M38 76c0 24 14 48 42 71h7c3 -5 6 -12 27 -36c11 -12 22 -22 35 -31c25 -18 71 -36 118 -36c88 0 132 52 132 112c0 163 -316 143 -316 350c0 63 25 114 75 152c49 38 106 57 169 57c36 0 74 -4 118 -13s75 -31 75 -59c0 -23 -19 -60 -44 -77h-7c0 2 -20 32 -58 62
c-23 16 -60 33 -96 33c-34 0 -63 -11 -86 -33c-24 -23 -36 -50 -36 -81c0 -90 114 -128 205 -175c62 -32 111 -90 111 -169c0 -68 -26 -121 -77 -160s-111 -58 -179 -58c-47 0 -95 8 -143 25c-48 16 -72 38 -72 66zM162 744c-15 0 -25 1 -31 4v8c28 15 55 36 80 61
s43 45 54 62c11 16 20 30 27 43c8 2 15 3 22 3c32 0 54 -29 67 -62s48 -80 100 -107v-8c-6 -3 -16 -4 -31 -4c-22 0 -47 10 -76 29s-49 39 -60 58h-5c-13 -19 -36 -39 -67 -58s-58 -29 -80 -29z" />
    <glyph glyph-name="scircumflex" unicode="&#x15d;" horiz-adv-x="407" 
d="M15 57c0 19 11 42 19 53l7 8h5c4 -4 7 -10 27 -30c10 -10 20 -19 31 -26c20 -15 52 -30 80 -30c48 0 79 28 79 71c0 110 -207 106 -207 261c0 93 78 150 183 150c86 0 129 -18 129 -55c0 -19 -11 -41 -22 -52l-7 -8h-5c-8 11 -17 25 -56 50c-20 13 -39 19 -58 19
c-43 0 -77 -22 -77 -66c0 -109 209 -101 209 -258c0 -49 -18 -88 -54 -116s-78 -42 -127 -42c-47 0 -91 5 -128 28c-19 11 -28 26 -28 43zM72 570c-15 0 -25 1 -31 4v8c28 15 55 36 80 61s43 45 54 62c11 16 20 30 27 43c8 2 15 3 22 3c32 0 54 -29 67 -62s48 -80 100 -107
v-8c-6 -3 -16 -4 -31 -4c-22 0 -47 10 -76 29s-49 39 -60 58h-5c-13 -19 -36 -39 -67 -58s-58 -29 -80 -29z" />
    <glyph glyph-name="Scedilla" unicode="&#x15e;" horiz-adv-x="568" 
d="M38 76c0 24 14 48 42 71h7c3 -5 6 -12 27 -36c11 -12 22 -22 35 -31c25 -18 71 -36 118 -36c88 0 132 52 132 112c0 163 -316 143 -316 350c0 63 25 114 75 152c49 38 106 57 169 57c36 0 74 -4 118 -13s75 -31 75 -59c0 -23 -19 -60 -44 -77h-7c0 2 -20 32 -58 62
c-23 16 -60 33 -96 33c-34 0 -63 -11 -86 -33c-24 -23 -36 -50 -36 -81c0 -90 114 -128 205 -175c62 -32 111 -90 111 -169c0 -65 -24 -117 -71 -155c-48 -39 -105 -59 -171 -62c-9 -15 -14 -26 -14 -35c0 -30 91 -5 91 -80c0 -57 -46 -102 -115 -102c-49 0 -79 19 -79 48
c0 9 2 17 5 25l5 2c9 -15 30 -23 65 -23c33 0 51 20 51 35c0 39 -77 20 -77 65c0 17 11 39 34 65c-47 3 -92 12 -133 28c-41 15 -62 36 -62 62z" />
    <glyph glyph-name="scedilla" unicode="&#x15f;" horiz-adv-x="407" 
d="M15 57c0 19 11 42 19 53l7 8h5c4 -4 7 -10 27 -30c10 -10 20 -19 31 -26c20 -15 52 -30 80 -30c48 0 79 28 79 71c0 110 -207 106 -207 261c0 93 78 150 183 150c86 0 129 -18 129 -55c0 -19 -11 -41 -22 -52l-7 -8h-5c-8 11 -17 25 -56 50c-20 13 -39 19 -58 19
c-43 0 -77 -22 -77 -66c0 -109 209 -101 209 -258c0 -48 -17 -86 -51 -114c-35 -28 -76 -43 -123 -44c-10 -14 -15 -26 -15 -35c0 -30 91 -5 91 -80c0 -57 -46 -102 -115 -102c-49 0 -79 19 -79 48c0 9 2 17 5 25l5 2c9 -15 30 -23 65 -23c33 0 51 20 51 35
c0 39 -77 20 -77 65c0 17 12 39 35 66c-69 5 -129 26 -129 70z" />
    <glyph glyph-name="Scaron" unicode="&#x160;" horiz-adv-x="568" 
d="M38 76c0 24 14 48 42 71h7c3 -5 6 -12 27 -36c11 -12 22 -22 35 -31c25 -18 71 -36 118 -36c88 0 132 52 132 112c0 163 -316 143 -316 350c0 63 25 114 75 152c49 38 106 57 169 57c36 0 74 -4 118 -13s75 -31 75 -59c0 -23 -19 -60 -44 -77h-7c0 2 -20 32 -58 62
c-23 16 -60 33 -96 33c-34 0 -63 -11 -86 -33c-24 -23 -36 -50 -36 -81c0 -90 114 -128 205 -175c62 -32 111 -90 111 -169c0 -68 -26 -121 -77 -160s-111 -58 -179 -58c-47 0 -95 8 -143 25c-48 16 -72 38 -72 66zM281 744c-27 74 -68 129 -125 166v8c6 3 16 4 30 4
c21 0 45 -10 72 -29c26 -19 44 -39 54 -58h5c12 19 33 39 63 58s55 29 76 29c14 0 24 -1 30 -4v-8c-53 -27 -94 -74 -110 -107c-17 -33 -42 -62 -73 -62c-7 0 -14 1 -22 3z" />
    <glyph glyph-name="scaron" unicode="&#x161;" horiz-adv-x="407" 
d="M15 57c0 19 11 42 19 53l7 8h5c4 -4 7 -10 27 -30c10 -10 20 -19 31 -26c20 -15 52 -30 80 -30c48 0 79 28 79 71c0 110 -207 106 -207 261c0 93 78 150 183 150c86 0 129 -18 129 -55c0 -19 -11 -41 -22 -52l-7 -8h-5c-8 11 -17 25 -56 50c-20 13 -39 19 -58 19
c-43 0 -77 -22 -77 -66c0 -109 209 -101 209 -258c0 -49 -18 -88 -54 -116s-78 -42 -127 -42c-47 0 -91 5 -128 28c-19 11 -28 26 -28 43zM191 570c-27 74 -68 129 -125 166v8c6 3 16 4 30 4c21 0 45 -10 72 -29c26 -19 44 -39 54 -58h5c12 19 33 39 63 58s55 29 76 29
c14 0 24 -1 30 -4v-8c-53 -27 -94 -74 -110 -107c-17 -33 -42 -62 -73 -62c-7 0 -14 1 -22 3z" />
    <glyph glyph-name="Tcommaaccent" unicode="&#x162;" horiz-adv-x="573" 
d="M211 48c0 11 6 99 17 265c11 165 17 271 17 317c-41 1 -74 1 -99 1c-33 0 -70 -3 -110 -9c-1 7 -1 14 -1 22c0 41 9 61 26 61c213 -3 351 -5 415 -5c34 0 69 3 104 10c1 -11 1 -22 1 -35c0 -32 -7 -48 -21 -48c-61 1 -126 1 -195 2c-2 -31 -5 -75 -10 -133
c-5 -59 -9 -106 -12 -141s-6 -78 -8 -127c-3 -50 -4 -96 -4 -138c0 -20 1 -50 2 -90c-11 -1 -36 -8 -47 -9c-12 -17 -18 -31 -18 -40c0 -30 91 -5 91 -80c0 -57 -46 -102 -115 -102c-49 0 -79 19 -79 48c0 9 2 17 5 25l5 2c9 -15 30 -23 65 -23c33 0 51 20 51 35
c0 39 -77 20 -77 65c0 21 13 44 39 70c-28 5 -42 24 -42 57z" />
    <glyph glyph-name="tcommaaccent" unicode="&#x163;" horiz-adv-x="360" 
d="M69 115c0 17 4 58 13 121c8 63 12 118 12 163c0 36 -8 47 -36 59l3 42c53 8 110 59 138 115l25 -10l-19 -105h70c24 0 42 1 47 4l3 1c0 -49 -17 -73 -52 -73l-74 2c-17 -108 -26 -201 -26 -279c0 -65 7 -89 44 -89s72 27 106 82l7 -4c-20 -97 -64 -148 -132 -153
c-12 -17 -18 -30 -18 -40c0 -30 91 -5 91 -80c0 -57 -46 -102 -115 -102c-49 0 -79 19 -79 48c0 9 2 17 5 25l5 2c9 -15 30 -23 65 -23c33 0 51 20 51 35c0 39 -77 20 -77 65c0 19 13 43 39 71c-60 7 -96 50 -96 123z" />
    <glyph glyph-name="Tcaron" unicode="&#x164;" horiz-adv-x="573" 
d="M211 48c0 5 6 85 17 239s17 268 17 343c-41 1 -74 1 -99 1c-33 0 -70 -3 -110 -9c-1 7 -1 14 -1 22c0 41 9 61 26 61c213 -3 351 -5 415 -5c34 0 69 3 104 10c1 -11 1 -22 1 -35c0 -32 -7 -48 -21 -48c-61 1 -126 1 -195 2c-2 -31 -5 -75 -10 -133
c-5 -59 -9 -106 -12 -141s-6 -78 -8 -127c-3 -50 -4 -96 -4 -138c0 -20 1 -50 2 -90c-40 -7 -61 -10 -63 -10c-39 0 -59 19 -59 58zM281 744c-27 74 -68 129 -125 166v8c6 3 16 4 30 4c21 0 45 -10 72 -29c26 -19 44 -39 54 -58h5c12 19 33 39 63 58s55 29 76 29
c14 0 24 -1 30 -4v-8c-53 -27 -94 -74 -110 -107c-17 -33 -42 -62 -73 -62c-7 0 -14 1 -22 3z" />
    <glyph glyph-name="tcaron" unicode="&#x165;" horiz-adv-x="360" 
d="M69 115c0 17 4 58 13 121c8 63 12 118 12 163c0 36 -8 47 -36 59l3 42c53 8 110 59 138 115l25 -10l-19 -105h70c24 0 42 1 47 4l3 1c0 -49 -17 -73 -52 -73l-74 2c-17 -108 -26 -201 -26 -279c0 -65 7 -89 44 -89s72 27 106 82l7 -4c-7 -36 -18 -66 -39 -99
s-58 -55 -105 -55c-73 0 -117 44 -117 125zM383 757c39 0 58 -31 58 -72c0 -60 -37 -115 -104 -115c-25 0 -47 10 -55 18l-5 5l4 7c9 -5 19 -8 31 -8c27 0 54 21 54 48c0 10 -7 20 -20 29c-14 9 -21 21 -21 36c0 32 25 52 58 52z" />
    <glyph glyph-name="Tbar" unicode="&#x166;" horiz-adv-x="573" 
d="M211 48c0 3 6 96 19 279h-49c-59 0 -97 -1 -116 -4c-1 7 -1 14 -1 23c0 36 9 54 26 54c27 -3 59 -5 96 -5h49c7 93 10 164 10 212v23c-41 1 -74 1 -99 1c-33 0 -70 -3 -110 -9c-1 7 -1 14 -1 22c0 41 9 61 26 61c213 -3 351 -5 415 -5c34 0 69 3 104 10
c1 -11 1 -22 1 -35c0 -32 -7 -48 -21 -48c-61 1 -126 1 -195 2c-2 -28 -5 -68 -10 -120s-8 -90 -10 -114h53c54 0 90 2 109 5c1 -7 2 -17 2 -28c0 -33 -8 -49 -23 -49c-27 3 -57 4 -91 4h-55c-6 -95 -9 -174 -9 -237c0 -20 1 -50 2 -90c-40 -7 -61 -10 -63 -10
c-39 0 -59 19 -59 58z" />
    <glyph glyph-name="tbar" unicode="&#x167;" horiz-adv-x="360" 
d="M69 115c0 14 5 62 15 143c-28 0 -48 -1 -61 -3c-1 5 -1 12 -1 21c0 35 9 53 26 53c12 -1 26 -2 43 -3c2 23 3 47 3 73c0 36 -8 47 -36 59l3 42c53 8 110 59 138 115l25 -10l-19 -105h70c24 0 42 1 47 4l3 1c0 -49 -17 -73 -52 -73l-74 2c-7 -47 -12 -84 -15 -110h16
c54 0 90 2 109 5c1 -7 2 -17 2 -28c0 -31 -6 -46 -17 -46c-35 2 -74 3 -117 4c-3 -33 -4 -67 -4 -104c0 -65 7 -89 44 -89s72 27 106 82l7 -4c-7 -36 -18 -66 -39 -99s-58 -55 -105 -55c-73 0 -117 44 -117 125z" />
    <glyph glyph-name="Utilde" unicode="&#x168;" horiz-adv-x="722" 
d="M93 276c0 21 3 79 10 173c6 94 9 165 9 212l-1 40c21 6 41 9 59 9c43 0 65 -25 65 -75c0 -15 -4 -75 -13 -182s-14 -173 -14 -199c0 -129 58 -209 163 -209c104 0 166 84 186 252c12 96 18 231 18 404c21 6 38 9 51 9c24 0 31 -12 31 -43c0 -54 -10 -173 -30 -357
c-24 -221 -102 -325 -277 -325c-171 0 -257 97 -257 291zM224 787l-5 7c15 58 56 87 124 87c25 0 54 -8 89 -23c35 -16 61 -24 78 -24c23 0 46 11 69 33l5 -7c-15 -58 -56 -87 -124 -87c-25 0 -55 8 -90 24c-35 15 -60 23 -77 23c-23 0 -46 -11 -69 -33z" />
    <glyph glyph-name="utilde" unicode="&#x169;" horiz-adv-x="579" 
d="M58 111c0 26 5 71 15 135s15 116 15 155l-6 99c21 7 39 10 55 10c39 0 59 -28 59 -83c0 -24 -6 -71 -17 -142c-12 -71 -18 -122 -18 -152c0 -53 16 -80 48 -80c43 0 84 43 123 130c28 63 42 131 42 204c0 43 -3 84 -4 101l-2 12c22 7 41 10 57 10c37 0 56 -26 56 -78
c0 -23 -6 -74 -18 -153s-18 -134 -18 -165c0 -39 10 -58 31 -58c27 0 59 31 74 58l12 19l7 -4c-1 -8 -2 -16 -17 -48c-8 -16 -17 -30 -26 -42c-20 -25 -58 -49 -102 -49c-55 0 -83 25 -83 76l7 58h-5c-45 -87 -96 -138 -180 -138c-80 0 -105 49 -105 125zM114 613l-5 7
c15 58 56 87 124 87c25 0 54 -8 89 -23c35 -16 61 -24 78 -24c23 0 46 11 69 33l5 -7c-15 -58 -56 -87 -124 -87c-25 0 -55 8 -90 24c-35 15 -60 23 -77 23c-23 0 -46 -11 -69 -33z" />
    <glyph glyph-name="Umacron" unicode="&#x16a;" horiz-adv-x="722" 
d="M93 276c0 21 3 79 10 173c6 94 9 165 9 212l-1 40c21 6 41 9 59 9c43 0 65 -25 65 -75c0 -15 -4 -75 -13 -182s-14 -173 -14 -199c0 -129 58 -209 163 -209c104 0 166 84 186 252c12 96 18 231 18 404c21 6 38 9 51 9c24 0 31 -12 31 -43c0 -54 -10 -173 -30 -357
c-24 -221 -102 -325 -277 -325c-171 0 -257 97 -257 291zM239 786c-1 7 -1 14 -1 23c0 36 9 54 26 54c63 -3 127 -5 192 -5c54 0 90 2 109 5c1 -7 2 -17 2 -28c0 -33 -6 -49 -17 -49c-63 3 -128 4 -195 4c-59 0 -97 -1 -116 -4z" />
    <glyph glyph-name="umacron" unicode="&#x16b;" horiz-adv-x="579" 
d="M58 111c0 26 5 71 15 135s15 116 15 155l-6 99c21 7 39 10 55 10c39 0 59 -28 59 -83c0 -24 -6 -71 -17 -142c-12 -71 -18 -122 -18 -152c0 -53 16 -80 48 -80c43 0 84 43 123 130c28 63 42 131 42 204c0 43 -3 84 -4 101l-2 12c22 7 41 10 57 10c37 0 56 -26 56 -78
c0 -23 -6 -74 -18 -153s-18 -134 -18 -165c0 -39 10 -58 31 -58c27 0 59 31 74 58l12 19l7 -4c-1 -8 -2 -16 -17 -48c-8 -16 -17 -30 -26 -42c-20 -25 -58 -49 -102 -49c-55 0 -83 25 -83 76l7 58h-5c-45 -87 -96 -138 -180 -138c-80 0 -105 49 -105 125zM129 612
c-1 7 -1 14 -1 23c0 36 9 54 26 54c63 -3 127 -5 192 -5c54 0 90 2 109 5c1 -7 2 -17 2 -28c0 -33 -6 -49 -17 -49c-63 3 -128 4 -195 4c-59 0 -97 -1 -116 -4z" />
    <glyph glyph-name="Ubreve" unicode="&#x16c;" horiz-adv-x="722" 
d="M93 276c0 21 3 79 10 173c6 94 9 165 9 212l-1 40c21 6 41 9 59 9c43 0 65 -25 65 -75c0 -15 -4 -75 -13 -182s-14 -173 -14 -199c0 -129 58 -209 163 -209c104 0 166 84 186 252c12 96 18 231 18 404c21 6 38 9 51 9c24 0 31 -12 31 -43c0 -54 -10 -173 -30 -357
c-24 -221 -102 -325 -277 -325c-171 0 -257 97 -257 291zM396 741c-81 0 -146 52 -146 141c0 27 10 35 35 35l38 -5c-1 -16 -1 -26 -1 -29c0 -47 26 -85 78 -85c51 0 88 43 91 94l1 20c14 3 26 5 36 5c23 0 35 -7 35 -21c0 -49 -17 -87 -51 -114s-73 -41 -116 -41z" />
    <glyph glyph-name="ubreve" unicode="&#x16d;" horiz-adv-x="579" 
d="M58 111c0 26 5 71 15 135s15 116 15 155l-6 99c21 7 39 10 55 10c39 0 59 -28 59 -83c0 -24 -6 -71 -17 -142c-12 -71 -18 -122 -18 -152c0 -53 16 -80 48 -80c43 0 84 43 123 130c28 63 42 131 42 204c0 43 -3 84 -4 101l-2 12c22 7 41 10 57 10c37 0 56 -26 56 -78
c0 -23 -6 -74 -18 -153s-18 -134 -18 -165c0 -39 10 -58 31 -58c27 0 59 31 74 58l12 19l7 -4c-1 -8 -2 -16 -17 -48c-8 -16 -17 -30 -26 -42c-20 -25 -58 -49 -102 -49c-55 0 -83 25 -83 76l7 58h-5c-45 -87 -96 -138 -180 -138c-80 0 -105 49 -105 125zM286 567
c-81 0 -146 52 -146 141c0 27 10 35 35 35l38 -5c-1 -16 -1 -26 -1 -29c0 -47 26 -85 78 -85c51 0 88 43 91 94l1 20c14 3 26 5 36 5c23 0 35 -7 35 -21c0 -49 -17 -87 -51 -114s-73 -41 -116 -41z" />
    <glyph glyph-name="Uring" unicode="&#x16e;" horiz-adv-x="722" 
d="M93 276c0 21 3 79 10 173c6 94 9 165 9 212l-1 40c21 6 41 9 59 9c43 0 65 -25 65 -75c0 -15 -4 -75 -13 -182s-14 -173 -14 -199c0 -129 58 -209 163 -209c104 0 166 84 186 252c12 96 18 231 18 404c21 6 38 9 51 9c24 0 31 -12 31 -43c0 -54 -10 -173 -30 -357
c-24 -221 -102 -325 -277 -325c-171 0 -257 97 -257 291zM465 773c-37 -35 -91 -35 -126 0c-36 35 -36 89 0 124c35 35 89 35 126 0c36 -35 36 -89 0 -124zM402 779c32 0 53 28 53 57c0 28 -25 53 -53 53c-29 0 -53 -24 -53 -53c0 -28 24 -57 53 -57z" />
    <glyph glyph-name="uring" unicode="&#x16f;" horiz-adv-x="579" 
d="M58 111c0 26 5 71 15 135s15 116 15 155l-6 99c21 7 39 10 55 10c39 0 59 -28 59 -83c0 -24 -6 -71 -17 -142c-12 -71 -18 -122 -18 -152c0 -53 16 -80 48 -80c43 0 84 43 123 130c28 63 42 131 42 204c0 43 -3 84 -4 101l-2 12c22 7 41 10 57 10c37 0 56 -26 56 -78
c0 -23 -6 -74 -18 -153s-18 -134 -18 -165c0 -39 10 -58 31 -58c27 0 59 31 74 58l12 19l7 -4c-1 -8 -2 -16 -17 -48c-8 -16 -17 -30 -26 -42c-20 -25 -58 -49 -102 -49c-55 0 -83 25 -83 76l7 58h-5c-45 -87 -96 -138 -180 -138c-80 0 -105 49 -105 125zM355 599
c-37 -35 -91 -35 -126 0c-36 35 -36 89 0 124c35 35 89 35 126 0c36 -35 36 -89 0 -124zM292 605c32 0 53 28 53 57c0 28 -25 53 -53 53c-29 0 -53 -24 -53 -53c0 -28 24 -57 53 -57z" />
    <glyph glyph-name="Uhungarumlaut" unicode="&#x170;" horiz-adv-x="722" 
d="M93 276c0 21 3 79 10 173c6 94 9 165 9 212l-1 40c21 6 41 9 59 9c43 0 65 -25 65 -75c0 -15 -4 -75 -13 -182s-14 -173 -14 -199c0 -129 58 -209 163 -209c104 0 166 84 186 252c12 96 18 231 18 404c21 6 38 9 51 9c24 0 31 -12 31 -43c0 -54 -10 -173 -30 -357
c-24 -221 -102 -325 -277 -325c-171 0 -257 97 -257 291zM387 748v5c57 31 107 87 150 169c43 0 64 -31 71 -43l2 -5c-10 -32 -37 -62 -80 -89s-81 -41 -113 -41c-15 0 -25 1 -30 4zM234 744c-15 0 -24 1 -29 4v5c57 31 106 87 149 169c32 0 58 -20 66 -36l7 -12
c-10 -32 -37 -62 -80 -89s-81 -41 -113 -41z" />
    <glyph glyph-name="uhungarumlaut" unicode="&#x171;" horiz-adv-x="579" 
d="M58 111c0 26 5 71 15 135s15 116 15 155l-6 99c21 7 39 10 55 10c39 0 59 -28 59 -83c0 -24 -6 -71 -17 -142c-12 -71 -18 -122 -18 -152c0 -53 16 -80 48 -80c43 0 84 43 123 130c28 63 42 131 42 204c0 43 -3 84 -4 101l-2 12c22 7 41 10 57 10c37 0 56 -26 56 -78
c0 -23 -6 -74 -18 -153s-18 -134 -18 -165c0 -39 10 -58 31 -58c27 0 59 31 74 58l12 19l7 -4c-1 -8 -2 -16 -17 -48c-8 -16 -17 -30 -26 -42c-20 -25 -58 -49 -102 -49c-55 0 -83 25 -83 76l7 58h-5c-45 -87 -96 -138 -180 -138c-80 0 -105 49 -105 125zM277 574v5
c57 31 107 87 150 169c43 0 64 -31 71 -43l2 -5c-10 -32 -37 -62 -80 -89s-81 -41 -113 -41c-15 0 -25 1 -30 4zM124 570c-15 0 -24 1 -29 4v5c57 31 106 87 149 169c32 0 58 -20 66 -36l7 -12c-10 -32 -37 -62 -80 -89s-81 -41 -113 -41z" />
    <glyph glyph-name="Uogonek" unicode="&#x172;" horiz-adv-x="723" 
d="M95 285c0 21 2 74 7 157c4 83 6 146 6 190c0 33 -2 55 -2 63l-1 6c21 6 41 9 59 9c44 0 66 -25 66 -75c0 -15 -3 -75 -10 -182s-10 -173 -10 -199c0 -127 63 -209 167 -209c103 0 163 84 181 252c8 75 12 189 12 341c0 29 0 50 -1 63c21 6 38 9 51 9c25 0 32 -12 32 -51
c0 -59 -8 -175 -24 -349c-15 -146 -56 -242 -124 -287c-17 -16 -41 -37 -84 -95c-21 -29 -32 -51 -32 -68c0 -26 15 -39 46 -39c15 0 30 3 45 10l5 -4c-13 -36 -56 -59 -97 -59c-47 0 -84 30 -84 82c0 49 36 95 107 139c-21 -3 -39 -4 -53 -4c-175 0 -262 100 -262 300z" />
    <glyph glyph-name="uogonek" unicode="&#x173;" horiz-adv-x="580" 
d="M58 110c0 26 5 71 15 136c10 64 15 116 15 155l-6 99c21 7 39 10 55 10c39 0 59 -28 59 -83c0 -25 -6 -72 -17 -143c-12 -71 -18 -121 -18 -152c0 -53 16 -80 48 -80c43 0 84 44 123 131c28 63 42 131 42 204c0 43 -3 84 -4 101l-2 12c22 7 41 10 57 10
c37 0 56 -26 56 -78c0 -23 -6 -74 -18 -153s-18 -134 -18 -165c0 -39 10 -58 31 -58c27 0 59 31 74 58l12 19l7 -4c-12 -48 -35 -86 -69 -115c-21 -18 -44 -43 -69 -75c-25 -31 -38 -58 -38 -79c0 -26 15 -39 46 -39c15 0 30 3 45 10l5 -4c-13 -36 -56 -59 -97 -59
c-47 0 -84 30 -84 82c0 48 36 95 109 140c-51 3 -76 28 -76 76l7 58h-5c-47 -88 -96 -139 -180 -139c-80 0 -105 49 -105 125z" />
    <glyph glyph-name="Wcircumflex" unicode="&#x174;" horiz-adv-x="943" 
d="M200 105c-59 258 -103 425 -132 502c-13 37 -27 69 -34 80l-4 8c15 9 43 13 86 13c36 0 69 -24 76 -65c9 -57 28 -139 55 -246s53 -201 78 -281h5c77 185 116 298 116 340c0 25 -5 57 -14 97c-9 39 -19 73 -28 101l-13 41c6 9 29 13 69 13c35 0 71 -25 76 -65
c9 -61 25 -146 48 -253c23 -108 45 -199 66 -274h5c23 59 52 125 87 198s61 131 78 175c17 43 25 83 25 119c0 31 -15 61 -27 74l-9 9v8c22 7 38 10 48 10c52 0 76 -17 76 -58c0 -31 -17 -85 -50 -162c-34 -77 -74 -164 -119 -263s-77 -179 -96 -240c-3 0 -42 2 -83 28
c-25 15 -52 48 -60 91c-3 12 -7 33 -12 63c-6 29 -12 59 -17 88c-6 29 -12 57 -18 84h-5c-2 -15 -6 -30 -11 -43l-88 -214l-35 -98c-7 0 -13 -1 -41 7c-14 5 -27 11 -38 19c-23 15 -49 49 -60 94zM328 744c-15 0 -25 1 -31 4v8c28 15 55 36 80 61s43 45 54 62
c11 16 20 30 27 43c8 2 15 3 22 3c32 0 54 -29 67 -62s48 -80 100 -107v-8c-6 -3 -16 -4 -31 -4c-22 0 -47 10 -76 29s-49 39 -60 58h-5c-13 -19 -36 -39 -67 -58s-58 -29 -80 -29z" />
    <glyph glyph-name="wcircumflex" unicode="&#x175;" horiz-adv-x="719" 
d="M149 41c-65 84 -98 189 -98 314c0 107 31 162 136 162l2 -8c-10 -16 -18 -41 -24 -75c-7 -35 -10 -65 -10 -92c0 -51 8 -100 25 -149s34 -86 52 -111h4c31 61 53 113 68 156s22 87 22 134c0 81 13 136 65 136c17 0 38 -6 49 -10l8 -4c-15 -71 -23 -125 -23 -163
c0 -37 8 -83 23 -136c15 -54 28 -92 41 -113h4c11 29 30 67 55 114s46 88 62 125s24 68 24 95c0 32 -13 60 -24 69l-8 7v8c13 5 29 8 47 8c39 0 59 -18 59 -55c0 -30 -14 -73 -42 -129c-28 -57 -60 -118 -96 -183c-36 -66 -60 -118 -71 -156c-48 9 -69 21 -92 56
c-27 40 -47 92 -62 157h-5c-7 -16 -24 -50 -49 -102s-42 -89 -49 -111c-47 9 -66 21 -93 56zM251 570c-15 0 -25 1 -31 4v8c28 15 55 36 80 61s43 45 54 62c11 16 20 30 27 43c8 2 15 3 22 3c32 0 54 -29 67 -62s48 -80 100 -107v-8c-6 -3 -16 -4 -31 -4
c-22 0 -47 10 -76 29s-49 39 -60 58h-5c-13 -19 -36 -39 -67 -58s-58 -29 -80 -29z" />
    <glyph glyph-name="Ycircumflex" unicode="&#x176;" horiz-adv-x="610" 
d="M234 48c0 28 3 60 11 147c3 43 7 90 10 139c-25 29 -72 114 -122 210c-25 48 -43 80 -52 95c-11 17 -27 37 -35 46l-7 7v8c17 5 41 8 72 8c30 0 50 -3 61 -10c10 -7 20 -21 29 -42c34 -77 79 -160 135 -251h5c21 33 43 66 64 101c21 34 36 60 47 79s22 37 35 56
c35 52 52 63 95 67c15 0 35 -3 46 -6l7 -2v-8c-23 -16 -45 -37 -66 -62c-23 -29 -60 -80 -110 -151c-50 -72 -82 -120 -95 -143c-7 -98 -11 -178 -11 -240c0 -32 1 -64 3 -96c-39 -7 -60 -10 -63 -10c-39 0 -59 19 -59 58zM196 744c-15 0 -25 1 -31 4v8c28 15 55 36 80 61
s43 45 54 62c11 16 20 30 27 43c8 2 15 3 22 3c32 0 54 -29 67 -62s48 -80 100 -107v-8c-6 -3 -16 -4 -31 -4c-22 0 -47 10 -76 29s-49 39 -60 58h-5c-13 -19 -36 -39 -67 -58s-58 -29 -80 -29z" />
    <glyph glyph-name="ycircumflex" unicode="&#x177;" horiz-adv-x="467" 
d="M-53 -138l3 8c25 -7 47 -10 67 -10c56 0 109 33 160 100c-49 278 -105 456 -167 535v5c24 5 45 8 64 8c32 0 49 -8 70 -41c44 -69 77 -200 100 -393c5 10 14 31 29 63c15 31 26 56 33 73s15 38 26 65c20 52 28 96 28 135c0 37 -13 67 -24 76l-8 6v8c13 5 29 8 47 8
c39 0 59 -19 59 -58c0 -43 -18 -107 -54 -191c-37 -85 -65 -143 -84 -176c-3 -5 -9 -17 -19 -36c-11 -19 -19 -35 -26 -48c-14 -25 -43 -75 -65 -104c-22 -28 -57 -67 -85 -88c-29 -21 -67 -37 -102 -37c-41 0 -61 16 -61 47c0 13 5 33 9 45zM99 570c-15 0 -25 1 -31 4v8
c28 15 55 36 80 61s43 45 54 62c11 16 20 30 27 43c8 2 15 3 22 3c32 0 54 -29 67 -62s48 -80 100 -107v-8c-6 -3 -16 -4 -31 -4c-22 0 -47 10 -76 29s-49 39 -60 58h-5c-13 -19 -36 -39 -67 -58s-58 -29 -80 -29z" />
    <glyph glyph-name="Ydieresis" unicode="&#x178;" horiz-adv-x="610" 
d="M234 48c0 28 3 60 11 147c3 43 7 90 10 139c-25 29 -72 114 -122 210c-25 48 -43 80 -52 95c-11 17 -27 37 -35 46l-7 7v8c17 5 41 8 72 8c30 0 50 -3 61 -10c10 -7 20 -21 29 -42c34 -77 79 -160 135 -251h5c21 33 43 66 64 101c21 34 36 60 47 79s22 37 35 56
c35 52 52 63 95 67c15 0 35 -3 46 -6l7 -2v-8c-23 -16 -45 -37 -66 -62c-23 -29 -60 -80 -110 -151c-50 -72 -82 -120 -95 -143c-7 -98 -11 -178 -11 -240c0 -32 1 -64 3 -96c-39 -7 -60 -10 -63 -10c-39 0 -59 19 -59 58zM294 801c-24 -24 -60 -24 -83 0
c-24 23 -24 59 0 83c23 23 59 23 83 0c23 -24 23 -60 0 -83zM444 783c-31 0 -58 27 -58 59s27 59 58 59c33 0 60 -27 60 -59s-27 -59 -60 -59z" />
    <glyph glyph-name="Zacute" unicode="&#x179;" horiz-adv-x="570" 
d="M252 0h-221c0 4 0 12 1 25c1 23 7 42 17 57c41 61 101 156 180 285c79 128 132 217 157 267v4c-24 -7 -108 -11 -251 -11c-51 0 -68 20 -68 72v11c41 -7 123 -10 247 -10h223c-2 -36 -11 -65 -26 -87c-49 -71 -105 -156 -166 -257s-107 -180 -137 -236
c-7 -13 -19 -31 -35 -52l2 -4c17 7 107 11 271 11c57 0 73 -10 73 -47c0 -8 -3 -31 -3 -38c-43 7 -131 10 -264 10zM204 748v5c57 31 107 87 150 169c32 0 58 -20 66 -36l7 -12c-10 -32 -37 -62 -80 -89s-81 -41 -113 -41c-15 0 -25 1 -30 4z" />
    <glyph glyph-name="zacute" unicode="&#x17a;" horiz-adv-x="438" 
d="M265 0h-260c0 1 -1 10 -1 14c0 15 5 30 15 45c7 11 50 64 129 158c78 93 130 159 157 197c-41 -7 -95 -11 -162 -11c-73 0 -87 33 -87 110l7 4c8 -7 24 -12 48 -14s69 -3 134 -3h164l-1 -12c-1 -16 -8 -33 -19 -51c-16 -25 -62 -82 -138 -172
c-77 -90 -126 -150 -148 -180c54 8 115 12 184 12c87 0 103 -66 103 -105l-7 -4c-7 6 -16 9 -29 10s-43 2 -89 2zM135 574v5c57 31 107 87 150 169c43 0 64 -31 71 -43l2 -5c-10 -32 -37 -62 -80 -89s-81 -41 -113 -41c-15 0 -25 1 -30 4z" />
    <glyph glyph-name="Zdotaccent" unicode="&#x17b;" horiz-adv-x="570" 
d="M252 0h-221c0 4 0 12 1 25c1 23 7 42 17 57c41 61 101 156 180 285c79 128 132 217 157 267v4c-24 -7 -108 -11 -251 -11c-51 0 -68 20 -68 72v11c41 -7 123 -10 247 -10h223c-2 -36 -11 -65 -26 -87c-49 -71 -105 -156 -166 -257s-107 -180 -137 -236
c-7 -13 -19 -31 -35 -52l2 -4c17 7 107 11 271 11c57 0 73 -10 73 -47c0 -8 -3 -31 -3 -38c-43 7 -131 10 -264 10zM363 790c-25 -25 -65 -25 -90 0s-25 65 0 90s65 25 90 0s25 -65 0 -90z" />
    <glyph glyph-name="zdotaccent" unicode="&#x17c;" horiz-adv-x="438" 
d="M265 0h-260c0 1 -1 10 -1 14c0 15 5 30 15 45c7 11 50 64 129 158c78 93 130 159 157 197c-41 -7 -95 -11 -162 -11c-73 0 -87 33 -87 110l7 4c8 -7 24 -12 48 -14s69 -3 134 -3h164l-1 -12c-1 -16 -8 -33 -19 -51c-16 -25 -62 -82 -138 -172
c-77 -90 -126 -150 -148 -180c54 8 115 12 184 12c87 0 103 -66 103 -105l-7 -4c-7 6 -16 9 -29 10s-43 2 -89 2zM294 616c-25 -25 -65 -25 -90 0s-25 65 0 90s65 25 90 0s25 -65 0 -90z" />
    <glyph glyph-name="Zcaron" unicode="&#x17d;" horiz-adv-x="570" 
d="M252 0h-221c0 4 0 12 1 25c1 23 7 42 17 57c41 61 101 156 180 285c79 128 132 217 157 267v4c-24 -7 -108 -11 -251 -11c-51 0 -68 20 -68 72v11c41 -7 123 -10 247 -10h223c-2 -36 -11 -65 -26 -87c-49 -71 -105 -156 -166 -257s-107 -180 -137 -236
c-7 -13 -19 -31 -35 -52l2 -4c17 7 107 11 271 11c57 0 73 -10 73 -47c0 -8 -3 -31 -3 -38c-43 7 -131 10 -264 10zM286 744c-27 74 -68 129 -125 166v8c6 3 16 4 30 4c21 0 45 -10 72 -29c26 -19 44 -39 54 -58h5c12 19 33 39 63 58s55 29 76 29c14 0 24 -1 30 -4v-8
c-53 -27 -94 -74 -110 -107c-17 -33 -42 -62 -73 -62c-7 0 -14 1 -22 3z" />
    <glyph glyph-name="zcaron" unicode="&#x17e;" horiz-adv-x="438" 
d="M265 0h-260c0 1 -1 10 -1 14c0 15 5 30 15 45c7 11 50 64 129 158c78 93 130 159 157 197c-41 -7 -95 -11 -162 -11c-73 0 -87 33 -87 110l7 4c8 -7 24 -12 48 -14s69 -3 134 -3h164l-1 -12c-1 -16 -8 -33 -19 -51c-16 -25 -62 -82 -138 -172
c-77 -90 -126 -150 -148 -180c54 8 115 12 184 12c87 0 103 -66 103 -105l-7 -4c-7 6 -16 9 -29 10s-43 2 -89 2zM217 570c-27 74 -68 129 -125 166v8c6 3 16 4 30 4c21 0 45 -10 72 -29c26 -19 44 -39 54 -58h5c12 19 33 39 63 58s55 29 76 29c14 0 24 -1 30 -4v-8
c-53 -27 -94 -74 -110 -107c-17 -33 -42 -62 -73 -62c-7 0 -14 1 -22 3z" />
    <glyph glyph-name="longs" unicode="&#x17f;" horiz-adv-x="282" 
d="M-40 -229l-3 9c53 39 91 119 110 191c9 37 17 81 22 133s8 94 9 126c1 31 1 71 1 118c0 45 -3 73 -8 83c-5 9 -23 18 -52 27l2 42c33 0 54 8 65 24c8 70 35 129 80 177s100 72 167 72c33 0 63 -6 92 -17s43 -29 43 -54s-21 -47 -38 -54l-12 -6h-5c-23 45 -64 72 -107 72
c-80 0 -118 -86 -126 -271c-1 -18 -1 -44 -1 -77c-1 -33 -1 -63 -2 -88s-2 -55 -4 -90c-4 -70 -12 -120 -26 -182c-31 -116 -90 -210 -207 -235z" />
    <glyph glyph-name="florin" unicode="&#x192;" horiz-adv-x="342" 
d="M225 434l-110 -464c-15 -61 -40 -110 -75 -147c-35 -36 -72 -54 -109 -54c-9 0 -20 4 -25 7l-3 2v5c23 9 42 23 56 42c15 19 33 60 54 124c21 65 46 159 74 284c20 87 30 144 30 171c0 23 -7 38 -22 45l-21 10l8 41c39 0 70 26 82 75c35 144 114 203 203 203
c60 0 114 -37 114 -105v-9l-4 -3c-24 32 -54 48 -90 48c-37 0 -57 -15 -78 -32c-12 -9 -24 -37 -31 -49s-18 -50 -21 -62c-3 -8 -16 -61 -18 -66h63c21 0 41 4 46 8l5 2c-3 -51 -25 -77 -66 -77c-24 0 -61 1 -62 1z" />
    <glyph glyph-name="Scommaaccent" unicode="&#x218;" horiz-adv-x="568" 
d="M38 76c0 24 14 48 42 71h7c3 -5 6 -12 27 -36c11 -12 22 -22 35 -31c25 -18 71 -36 118 -36c88 0 132 52 132 112c0 163 -316 143 -316 350c0 63 25 114 75 152c49 38 106 57 169 57c36 0 74 -4 118 -13s75 -31 75 -59c0 -23 -19 -60 -44 -77h-7c0 2 -20 32 -58 62
c-23 16 -60 33 -96 33c-34 0 -63 -11 -86 -33c-24 -23 -36 -50 -36 -81c0 -90 114 -128 205 -175c62 -32 111 -90 111 -169c0 -68 -26 -121 -77 -160s-111 -58 -179 -58c-47 0 -95 8 -143 25c-48 16 -72 38 -72 66zM252 -44c39 0 58 -31 58 -72c0 -60 -37 -115 -104 -115
c-25 0 -47 9 -54 17l-6 6l4 7c9 -5 19 -8 31 -8c27 0 54 21 54 48c0 10 -7 20 -20 29c-14 9 -21 21 -21 36c0 32 25 52 58 52z" />
    <glyph glyph-name="scommaaccent" unicode="&#x219;" horiz-adv-x="407" 
d="M15 57c0 19 11 42 19 53l7 8h5c4 -4 7 -10 27 -30c10 -10 20 -19 31 -26c20 -15 52 -30 80 -30c48 0 79 28 79 71c0 110 -207 106 -207 261c0 93 78 150 183 150c86 0 129 -18 129 -55c0 -19 -11 -41 -22 -52l-7 -8h-5c-8 11 -17 25 -56 50c-20 13 -39 19 -58 19
c-43 0 -77 -22 -77 -66c0 -109 209 -101 209 -258c0 -49 -18 -88 -54 -116s-78 -42 -127 -42c-47 0 -91 5 -128 28c-19 11 -28 26 -28 43zM162 -44c39 0 58 -31 58 -72c0 -60 -37 -115 -104 -115c-25 0 -47 9 -54 17l-6 6l4 7c9 -5 19 -8 31 -8c27 0 54 21 54 48
c0 10 -7 20 -20 29c-14 9 -21 21 -21 36c0 32 25 52 58 52z" />
    <glyph glyph-name="uni021A" unicode="&#x21a;" horiz-adv-x="573" 
d="M211 48c0 5 6 85 17 239s17 268 17 343c-41 1 -74 1 -99 1c-33 0 -70 -3 -110 -9c-1 7 -1 14 -1 22c0 41 9 61 26 61c213 -3 351 -5 415 -5c34 0 69 3 104 10c1 -11 1 -22 1 -35c0 -32 -7 -48 -21 -48c-61 1 -126 1 -195 2c-2 -31 -5 -75 -10 -133
c-5 -59 -9 -106 -12 -141s-6 -78 -8 -127c-3 -50 -4 -96 -4 -138c0 -20 1 -50 2 -90c-40 -7 -61 -10 -63 -10c-39 0 -59 19 -59 58zM267 -44c39 0 58 -31 58 -72c0 -60 -37 -115 -104 -115c-25 0 -47 9 -55 17l-5 6l4 7c9 -5 19 -8 31 -8c27 0 54 21 54 48
c0 10 -7 20 -20 29c-14 9 -21 21 -21 36c0 32 25 52 58 52z" />
    <glyph glyph-name="uni021B" unicode="&#x21b;" horiz-adv-x="360" 
d="M69 115c0 17 4 58 13 121c8 63 12 118 12 163c0 36 -8 47 -36 59l3 42c53 8 110 59 138 115l25 -10l-19 -105h70c24 0 42 1 47 4l3 1c0 -49 -17 -73 -52 -73l-74 2c-17 -108 -26 -201 -26 -279c0 -65 7 -89 44 -89s72 27 106 82l7 -4c-7 -36 -18 -66 -39 -99
s-58 -55 -105 -55c-73 0 -117 44 -117 125zM179 -44c39 0 58 -31 58 -72c0 -60 -37 -115 -104 -115c-25 0 -47 9 -55 17l-5 6l4 7c9 -5 19 -8 31 -8c27 0 54 21 54 48c0 10 -7 20 -20 29c-14 9 -21 21 -21 36c0 32 25 52 58 52z" />
    <glyph glyph-name="circumflex" unicode="&#x2c6;" horiz-adv-x="400" 
d="M49 571c-15 0 -25 1 -31 4v8c28 15 55 36 80 61s43 45 54 62c11 16 20 30 27 43c8 2 15 3 22 3c32 0 54 -29 67 -62s48 -80 100 -107v-8c-6 -3 -16 -4 -31 -4c-22 0 -47 10 -76 29s-49 39 -60 58h-5c-13 -19 -36 -39 -67 -58s-58 -29 -80 -29z" />
    <glyph glyph-name="caron" unicode="&#x2c7;" horiz-adv-x="400" 
d="M166 571c-27 74 -68 129 -125 166v8c6 3 16 4 30 4c21 0 45 -10 72 -29c26 -19 44 -39 54 -58h5c12 19 33 39 63 58s55 29 76 29c14 0 24 -1 30 -4v-8c-53 -27 -94 -74 -110 -107c-17 -33 -42 -62 -73 -62c-7 0 -14 1 -22 3z" />
    <glyph glyph-name="breve" unicode="&#x2d8;" horiz-adv-x="400" 
d="M193 568c-81 0 -146 52 -146 141c0 27 10 35 35 35l38 -5c-1 -16 -1 -26 -1 -29c0 -47 26 -85 78 -85c51 0 88 43 91 94l1 20c14 3 26 5 36 5c23 0 35 -7 35 -21c0 -49 -17 -87 -51 -114s-73 -41 -116 -41z" />
    <glyph glyph-name="dotaccent" unicode="&#x2d9;" horiz-adv-x="400" 
d="M244 617c-25 -25 -65 -25 -90 0s-25 65 0 90s65 25 90 0s25 -65 0 -90z" />
    <glyph glyph-name="ring" unicode="&#x2da;" horiz-adv-x="400" 
d="M263 600c-37 -35 -91 -35 -126 0c-36 35 -36 89 0 124c35 35 89 35 126 0c36 -35 36 -89 0 -124zM200 606c32 0 53 28 53 57c0 28 -25 53 -53 53c-29 0 -53 -24 -53 -53c0 -28 24 -57 53 -57z" />
    <glyph glyph-name="ogonek" unicode="&#x2db;" horiz-adv-x="400" 
d="M93 -150c0 57 52 112 155 166l23 -10c-13 -11 -31 -32 -56 -64c-25 -31 -37 -59 -37 -82c0 -26 15 -39 46 -39c15 0 30 3 45 10l5 -4c-13 -36 -56 -59 -97 -59c-47 0 -84 30 -84 82z" />
    <glyph glyph-name="tilde" unicode="&#x2dc;" horiz-adv-x="400" 
d="M22 614l-5 7c15 58 56 87 124 87c25 0 54 -8 89 -23c35 -16 61 -24 78 -24c23 0 46 11 69 33l5 -7c-15 -58 -56 -87 -124 -87c-25 0 -55 8 -90 24c-35 15 -60 23 -77 23c-23 0 -46 -11 -69 -33z" />
    <glyph glyph-name="hungarumlaut" unicode="&#x2dd;" horiz-adv-x="400" 
d="M178 575v5c57 31 107 87 150 169c32 0 58 -20 66 -36l7 -12c-10 -32 -37 -62 -80 -89s-81 -41 -113 -41c-15 0 -25 1 -30 4zM25 571c-15 0 -24 1 -29 4v5c57 31 106 87 149 169c43 0 64 -31 71 -43l2 -5c-10 -32 -37 -62 -80 -89s-81 -41 -113 -41z" />
    <glyph glyph-name="increment" unicode="&#x394;" horiz-adv-x="842" 
d="M469 503c-11 57 -17 112 -17 167c0 20 0 36 1 48c105 -9 202 -66 263 -149h-13c-71 0 -149 -22 -234 -66zM589 371c45 45 103 86 173 122c20 -47 30 -96 30 -145c0 -50 -11 -99 -33 -147c-37 65 -93 122 -170 170zM295 469c-49 15 -108 44 -177 85c63 91 145 144 246 160
c-45 -69 -68 -150 -69 -245zM478 -15c31 63 50 137 56 223c59 -21 117 -50 175 -87c-61 -75 -138 -120 -231 -136zM88 196c-23 47 -34 98 -34 152c0 41 7 79 20 116c40 -65 95 -119 166 -161c-50 -47 -101 -82 -152 -107zM147 108c71 4 142 23 213 58
c11 -48 17 -100 17 -156v-26c-88 10 -165 51 -230 124zM416 373l-4 1c-9 67 -38 129 -66 158c14 25 38 37 72 37c21 -25 32 -58 32 -98c0 -43 -11 -75 -34 -98zM407 108c-21 24 -32 56 -32 97s11 74 32 100l5 -2c11 -65 39 -129 67 -158c-14 -25 -38 -37 -72 -37zM211 378
c-6 9 -9 20 -9 35s4 31 13 46c8 1 15 1 22 1c31 0 61 -9 90 -28s48 -43 58 -72l-4 -4c-44 17 -87 26 -129 26c-1 0 -14 -1 -41 -4zM440 318l4 2c43 -17 85 -25 128 -25c15 0 29 1 42 4c6 -13 9 -25 9 -35c0 -15 -5 -31 -14 -46c-7 -1 -14 -1 -21 -1c-63 0 -128 42 -148 101z
M210 227c9 27 28 51 57 71s58 30 89 30c11 0 19 -1 24 -3l2 -5c-53 -41 -87 -86 -104 -136c-29 0 -52 14 -68 43zM444 352v4c51 41 90 98 103 137c28 0 51 -14 68 -43c-9 -27 -28 -51 -57 -71s-58 -30 -89 -30c-11 0 -20 1 -25 3z" />
    <glyph glyph-name="increment" unicode="&#x2206;" horiz-adv-x="842" 
d="M469 503c-11 57 -17 112 -17 167c0 20 0 36 1 48c105 -9 202 -66 263 -149h-13c-71 0 -149 -22 -234 -66zM589 371c45 45 103 86 173 122c20 -47 30 -96 30 -145c0 -50 -11 -99 -33 -147c-37 65 -93 122 -170 170zM295 469c-49 15 -108 44 -177 85c63 91 145 144 246 160
c-45 -69 -68 -150 -69 -245zM478 -15c31 63 50 137 56 223c59 -21 117 -50 175 -87c-61 -75 -138 -120 -231 -136zM88 196c-23 47 -34 98 -34 152c0 41 7 79 20 116c40 -65 95 -119 166 -161c-50 -47 -101 -82 -152 -107zM147 108c71 4 142 23 213 58
c11 -48 17 -100 17 -156v-26c-88 10 -165 51 -230 124zM416 373l-4 1c-9 67 -38 129 -66 158c14 25 38 37 72 37c21 -25 32 -58 32 -98c0 -43 -11 -75 -34 -98zM407 108c-21 24 -32 56 -32 97s11 74 32 100l5 -2c11 -65 39 -129 67 -158c-14 -25 -38 -37 -72 -37zM211 378
c-6 9 -9 20 -9 35s4 31 13 46c8 1 15 1 22 1c31 0 61 -9 90 -28s48 -43 58 -72l-4 -4c-44 17 -87 26 -129 26c-1 0 -14 -1 -41 -4zM440 318l4 2c43 -17 85 -25 128 -25c15 0 29 1 42 4c6 -13 9 -25 9 -35c0 -15 -5 -31 -14 -46c-7 -1 -14 -1 -21 -1c-63 0 -128 42 -148 101z
M210 227c9 27 28 51 57 71s58 30 89 30c11 0 19 -1 24 -3l2 -5c-53 -41 -87 -86 -104 -136c-29 0 -52 14 -68 43zM444 352v4c51 41 90 98 103 137c28 0 51 -14 68 -43c-9 -27 -28 -51 -57 -71s-58 -30 -89 -30c-11 0 -20 1 -25 3z" />
    <glyph glyph-name="Omega" unicode="&#x3a9;" horiz-adv-x="811" 
d="M115 147c-15 17 -23 31 -23 42c0 7 5 14 15 21c9 6 36 21 81 44l137 73l-1 3l-155 -5c-42 -2 -103 -2 -116 -4c-1 11 -2 23 -2 37c0 13 12 20 35 20c55 0 134 -2 238 -7l1 3l-137 74c-66 35 -100 53 -102 54c7 29 18 43 32 43c8 0 23 -7 46 -21c19 -11 79 -50 182 -115
l2 2l-82 134c-22 37 -54 89 -61 98c18 15 32 23 41 23c12 0 14 -2 35 -42l103 -192l3 1l-5 157c-2 41 -3 103 -4 115c11 2 22 3 34 3c15 0 23 -8 23 -23v-34c0 -25 -2 -98 -7 -218h3l74 137c12 21 32 59 43 79l12 24c9 -4 19 -9 30 -15c9 -5 13 -10 13 -17
c0 -5 -7 -19 -21 -44c-3 -5 -21 -35 -56 -92s-54 -88 -58 -94l2 -2l132 83c35 22 88 54 99 62c15 -19 23 -33 23 -42c0 -5 -5 -12 -16 -19c-11 -8 -38 -23 -80 -46l-138 -74l1 -3c176 6 267 9 272 10c1 -7 2 -16 2 -27c0 -28 -5 -30 -52 -30c-3 0 -77 2 -222 6l-1 -4
l138 -72c66 -35 100 -53 102 -54c-10 -29 -21 -44 -32 -44c-7 0 -39 18 -96 53l-133 82l-2 -2l83 -132c22 -35 53 -89 61 -98c-19 -16 -33 -24 -42 -24c-7 0 -12 4 -17 13l-17 29c-9 15 -19 33 -30 54l-74 137l-3 -1l6 -155c2 -41 3 -103 4 -115c-11 -2 -22 -3 -34 -3
c-15 0 -23 8 -23 23v33c0 25 0 46 1 62l5 155l-3 1l-73 -136c-12 -21 -32 -59 -43 -79l-12 -24c-9 4 -19 9 -30 15c-9 5 -13 10 -13 17c0 6 7 20 21 43c4 7 42 68 114 185l-2 2l-132 -81c-35 -22 -88 -54 -99 -62z" />
    <glyph glyph-name="Omega" unicode="&#x2126;" horiz-adv-x="811" 
d="M115 147c-15 17 -23 31 -23 42c0 7 5 14 15 21c9 6 36 21 81 44l137 73l-1 3l-155 -5c-42 -2 -103 -2 -116 -4c-1 11 -2 23 -2 37c0 13 12 20 35 20c55 0 134 -2 238 -7l1 3l-137 74c-66 35 -100 53 -102 54c7 29 18 43 32 43c8 0 23 -7 46 -21c19 -11 79 -50 182 -115
l2 2l-82 134c-22 37 -54 89 -61 98c18 15 32 23 41 23c12 0 14 -2 35 -42l103 -192l3 1l-5 157c-2 41 -3 103 -4 115c11 2 22 3 34 3c15 0 23 -8 23 -23v-34c0 -25 -2 -98 -7 -218h3l74 137c12 21 32 59 43 79l12 24c9 -4 19 -9 30 -15c9 -5 13 -10 13 -17
c0 -5 -7 -19 -21 -44c-3 -5 -21 -35 -56 -92s-54 -88 -58 -94l2 -2l132 83c35 22 88 54 99 62c15 -19 23 -33 23 -42c0 -5 -5 -12 -16 -19c-11 -8 -38 -23 -80 -46l-138 -74l1 -3c176 6 267 9 272 10c1 -7 2 -16 2 -27c0 -28 -5 -30 -52 -30c-3 0 -77 2 -222 6l-1 -4
l138 -72c66 -35 100 -53 102 -54c-10 -29 -21 -44 -32 -44c-7 0 -39 18 -96 53l-133 82l-2 -2l83 -132c22 -35 53 -89 61 -98c-19 -16 -33 -24 -42 -24c-7 0 -12 4 -17 13l-17 29c-9 15 -19 33 -30 54l-74 137l-3 -1l6 -155c2 -41 3 -103 4 -115c-11 -2 -22 -3 -34 -3
c-15 0 -23 8 -23 23v33c0 25 0 46 1 62l5 155l-3 1l-73 -136c-12 -21 -32 -59 -43 -79l-12 -24c-9 4 -19 9 -30 15c-9 5 -13 10 -13 17c0 6 7 20 21 43c4 7 42 68 114 185l-2 2l-132 -81c-35 -22 -88 -54 -99 -62z" />
    <glyph glyph-name="pi" unicode="&#x3c0;" horiz-adv-x="834" 
d="M127 346c0 -87 28 -159 85 -217c56 -58 126 -87 209 -87c80 0 148 30 205 89s85 132 85 221c0 87 -28 159 -84 217s-125 87 -208 87c-81 0 -149 -29 -206 -88s-86 -133 -86 -222zM49 333c0 113 36 205 108 276c72 70 167 105 284 105c101 0 185 -33 250 -99
c65 -67 98 -150 98 -250c0 -113 -36 -205 -108 -275c-72 -71 -167 -106 -284 -106c-101 0 -185 33 -250 100c-65 66 -98 149 -98 249zM394 370v-42c5 -1 11 -1 19 -1c56 0 89 43 89 95c0 41 -32 75 -89 75h-17c-1 -57 -2 -100 -2 -127zM310 177v178c0 49 -1 91 -3 127l-6 60
c14 -1 26 -1 35 -1h95c103 0 161 -53 161 -114c0 -44 -17 -79 -51 -104s-73 -38 -117 -38c-13 0 -23 1 -30 2c1 -64 4 -112 9 -143c-35 -3 -54 -5 -57 -5c-24 0 -36 13 -36 38z" />
    <glyph glyph-name="uni1E9E" unicode="&#x1e9e;" horiz-adv-x="691" 
d="M22 -158l-2 5c28 31 47 83 56 164c5 41 8 78 11 111c2 33 4 79 7 136c2 57 4 101 6 133c1 21 3 39 4 52s5 32 10 57c11 51 24 78 54 120c41 59 111 92 229 95c68 0 145 -16 180 -29l26 -9l3 -5c-1 -11 -17 -44 -46 -98c-30 -55 -63 -110 -100 -167l2 -4
c116 -21 174 -101 174 -193c0 -59 -21 -111 -63 -156c-43 -46 -97 -69 -162 -69c-69 0 -128 30 -148 95l6 5c25 -22 59 -33 100 -33c93 0 145 67 145 151c0 57 -25 100 -64 121s-68 29 -100 32c-9 1 -15 5 -18 10c0 5 4 17 8 24l2 5c67 108 114 190 140 246l-2 4
c-17 11 -41 16 -73 16c-67 0 -119 -34 -147 -93c-28 -60 -46 -125 -53 -211s-8 -150 -9 -230c-1 -40 -2 -70 -3 -89c-10 -131 -68 -196 -173 -196z" />
    <glyph glyph-name="endash" unicode="&#x2013;" horiz-adv-x="674" 
d="M75 243c-2 11 -3 22 -3 34c0 29 7 43 22 43c39 -3 82 -5 127 -5h267c51 0 85 2 103 5c3 -13 4 -28 4 -45c0 -21 -4 -32 -13 -32c-39 2 -81 3 -126 4h-271c-55 0 -92 -1 -110 -4z" />
    <glyph glyph-name="emdash" unicode="&#x2014;" horiz-adv-x="778" 
d="M74 243c-1 11 -2 22 -2 34c0 29 7 43 21 43c40 -3 83 -5 128 -5h371c51 0 86 2 104 5c2 -13 3 -28 3 -45c0 -21 -4 -32 -13 -32c-39 2 -81 3 -126 4h-375c-56 0 -93 -1 -111 -4z" />
    <glyph glyph-name="quoteleft" unicode="&#x2018;" horiz-adv-x="203" 
d="M64 476c-2 8 -3 17 -3 28c0 43 14 88 42 137c27 48 58 79 91 92l4 -4c-25 -69 -38 -135 -38 -197c0 -8 1 -25 4 -52c-16 -9 -33 -13 -51 -13c-19 0 -36 3 -49 9z" />
    <glyph glyph-name="quoteright" unicode="&#x2019;" horiz-adv-x="196" 
d="M64 467l-4 4c25 70 38 135 38 196c0 9 -1 26 -4 53c16 9 33 13 51 13c19 0 36 -3 49 -9c2 -9 3 -18 3 -28c0 -43 -14 -88 -41 -136c-28 -49 -59 -80 -92 -93z" />
    <glyph glyph-name="quotesinglbase" unicode="&#x201a;" horiz-adv-x="219" 
d="M44 59c0 9 -1 26 -4 53c16 9 33 13 51 13c19 0 36 -3 49 -9c2 -9 3 -18 3 -28c0 -43 -14 -88 -41 -137c-28 -48 -59 -79 -92 -92l-4 4c25 69 38 135 38 196z" />
    <glyph glyph-name="quotedblleft" unicode="&#x201c;" horiz-adv-x="354" 
d="M222 476c-2 7 -3 16 -3 27c0 43 13 89 39 138c26 48 55 79 87 92l4 -4c-25 -69 -38 -135 -38 -197c0 -8 1 -25 4 -52c-16 -9 -33 -13 -51 -13c-16 0 -30 3 -42 9zM108 467c-17 0 -31 3 -43 9c-2 7 -3 16 -3 27c0 43 13 89 39 138c26 48 55 79 87 92l4 -4
c-25 -69 -38 -135 -38 -197c0 -8 1 -25 4 -52c-15 -9 -31 -13 -50 -13z" />
    <glyph glyph-name="quotedblright" unicode="&#x201d;" horiz-adv-x="347" 
d="M64 467l-4 4c25 70 38 135 38 196c0 9 -1 26 -4 53c15 9 31 13 50 13c17 0 31 -3 43 -9c2 -7 3 -17 3 -28c0 -43 -13 -88 -39 -136c-26 -49 -55 -80 -87 -93zM221 467l-4 4c25 70 38 135 38 196c0 9 -1 26 -4 53c15 9 31 13 50 13c17 0 31 -3 43 -9c2 -7 3 -17 3 -28
c0 -43 -13 -88 -39 -136c-27 -49 -56 -80 -87 -93z" />
    <glyph glyph-name="quotedblbase" unicode="&#x201e;" horiz-adv-x="371" 
d="M45 59c0 9 -1 26 -4 53c15 9 31 13 50 13c17 0 31 -3 43 -9c2 -7 3 -17 3 -28c0 -43 -13 -88 -39 -137c-26 -48 -55 -79 -87 -92l-4 4c25 69 38 135 38 196zM202 59c0 9 -1 26 -4 53c15 9 31 13 50 13c17 0 31 -3 43 -9c2 -7 3 -17 3 -28c0 -43 -13 -88 -39 -137
c-27 -48 -56 -79 -87 -92l-4 4c25 70 38 135 38 196z" />
    <glyph glyph-name="dagger" unicode="&#x2020;" horiz-adv-x="431" 
d="M155 -143c0 6 11 197 34 574h-24c-55 0 -92 -1 -110 -4c-1 7 -1 14 -1 23c0 36 8 54 24 54c35 -3 74 -5 115 -5c5 89 7 143 7 164c0 19 0 32 -1 37c48 6 76 9 72 -24l-10 -177h28c51 0 85 2 103 5c1 -10 2 -22 2 -35c0 -28 -5 -42 -15 -42c-37 2 -77 3 -122 4
c-21 -351 -32 -535 -32 -550c0 -20 1 -36 2 -48c-10 -2 -21 -3 -32 -3c-28 0 -40 6 -40 27z" />
    </font>
</defs>
</svg>
